<?xml version="1.0" standalone="no"?>
<!DOCTYPE svg PUBLIC "-//W3C//DTD SVG 1.1//EN" "http://www.w3.org/Graphics/SVG/1.1/DTD/svg11.dtd" >
<svg xmlns="http://www.w3.org/2000/svg" xmlns:xlink="http://www.w3.org/1999/xlink" version="1.1">
<metadata>
Created by FontForge 20150318 at Fri Apr 24 18:53:58 2015
 By uniteet7
Copyright Dave Gandy 2015. All rights reserved.
</metadata>
<defs>
<font id="FontMaarch" horiz-adv-x="1536" >
  <font-face 
    font-family="FontMaarch"
    font-weight="400"
    font-stretch="normal"
    units-per-em="1792"
    panose-1="0 0 0 0 0 0 0 0 0 0"
    ascent="1434"
    descent="-358"
    bbox="-0.149097 -329 4142 1413.33"
    underline-thickness="90"
    underline-position="-89"
    stemh="128"
    stemv="128"
    unicode-range="U+0020-F065"
  />
<missing-glyph horiz-adv-x="448" 
 />
    <glyph glyph-name=".notdef" horiz-adv-x="448" 
 />
    <glyph glyph-name="space" unicode=" " horiz-adv-x="448" 
 />
    <glyph glyph-name="contact" unicode="&#xf000;" horiz-adv-x="1943" 
d="M1760 1037c29 -40 35 -86 19 -138l-295 -972c-14 -47 -41 -84 -82 -115s-85 -48 -131 -48h-991c-55 0 -109 20 -160 58c-50 38 -86 85 -106 141c-18 48 -19 93 -2 136c0 4 1 13 3 29l4 40c1 12 -7 35 -6 44c1 20 29 48 44 73c16 27 32 60 48 98s27 72 32 98
c4 14 -3 51 0 63c2 7 9 18 18 30c10 12 16 20 19 24c14 26 30 59 45 99s23 72 27 97c0 6 -1 18 -4 34c-2 16 -2 27 1 30c4 10 12 20 24 32l24 25c14 18 28 49 45 90c16 42 27 78 30 104c1 12 -9 43 -6 56c4 15 33 46 48 67c46 66 52 213 190 175l-1 -4c26 7 45 10 54 10h817
c53 0 93 -20 122 -60s36 -87 20 -140l-294 -972c-26 -85 -52 -140 -78 -165c-25 -25 -71 -37 -137 -37h-933c-19 0 -33 -5 -41 -16c-7 -11 -8 -27 -1 -46c18 -50 69 -75 155 -75h991c41 0 86 23 97 61l322 1059c5 17 7 37 6 62c26 -11 48 -26 63 -47zM587 1195
c-52 -52 -77 -114 -77 -188c0 -73 25 -136 77 -188c52 -51 115 -77 188 -77c74 0 136 26 188 77c52 52 78 115 78 188c0 74 -26 136 -78 188s-114 78 -188 78c-73 0 -136 -26 -188 -78zM291 461c-2 -23 -2 -47 -2 -71c0 -55 16 -99 50 -131s78 -48 134 -48h604
c56 0 101 16 135 48c33 32 50 76 50 131c0 49 -3 93 -12 147c-10 54 -23 98 -48 142c-36 64 -92 107 -179 107c-8 0 -42 -23 -81 -48c-19 -12 -44 -23 -75 -33c-30 -10 -61 -15 -92 -15s-61 5 -92 15s-56 21 -75 33c-38 24 -72 48 -80 48c-116 0 -179 -78 -209 -174
c-15 -46 -25 -104 -28 -151z" />
    <glyph glyph-name="contact_add" unicode="&#xf001;" horiz-adv-x="2389" 
d="M996 417v-206c0 -38 14 -70 41 -97c27 -26 59 -40 96 -40h275v-256c-48 -35 -109 -54 -183 -54h-938c-87 0 -156 25 -209 75c-52 49 -78 117 -78 203c0 38 1 76 3 111c5 73 22 162 44 234c47 149 145 270 324 270c14 0 28 -7 42 -18c113 -87 215 -131 343 -131
c127 0 230 44 342 131c14 11 28 18 42 18c94 0 172 -34 233 -103h-240c-37 0 -69 -14 -96 -40c-27 -27 -41 -59 -41 -97zM1786 829v-378h378c18 0 34 -16 34 -34v-206c0 -18 -16 -34 -34 -34h-378v-378c0 -18 -16 -35 -34 -35h-206c-19 0 -35 17 -35 35v378h-378
c-18 0 -34 16 -34 34v206c0 18 16 34 34 34h378v378c0 18 16 35 35 35h206c18 0 34 -17 34 -35zM1046 709c-80 -80 -177 -120 -290 -120c-114 0 -212 40 -292 120c-81 81 -120 178 -120 292s39 210 120 291c80 80 178 121 292 121c113 0 210 -41 290 -121
c81 -81 122 -177 122 -291s-41 -211 -122 -292z" />
    <glyph glyph-name="contact_search" unicode="&#xf002;" horiz-adv-x="1511" 
d="M1492 270c15 -83 19 -151 19 -228c0 -85 -26 -153 -78 -202c-53 -51 -121 -76 -208 -76h-938c-87 0 -156 25 -209 76c-52 49 -78 117 -78 202c0 38 1 76 3 111c5 73 22 162 44 234c47 149 145 270 324 270c7 0 24 -9 47 -24c-5 -9 -11 -18 -15 -28
c-21 -50 -32 -102 -32 -157c0 -84 23 -161 71 -229l-197 -198c-15 -14 -22 -32 -22 -52s8 -37 22 -52c15 -14 32 -21 52 -21c21 0 38 7 52 21l197 197c69 -47 145 -71 230 -71c55 0 108 10 158 32c100 43 173 116 216 216c21 49 31 103 31 157c0 55 -10 107 -31 157
c-7 17 -16 32 -25 47c6 3 12 5 15 5c135 0 222 -67 278 -166c38 -68 59 -136 74 -221zM776 706c-71 0 -131 -25 -182 -76c-50 -50 -76 -111 -76 -182s26 -132 76 -182s111 -76 182 -76s132 25 183 76c50 50 75 111 75 182s-25 132 -75 182c-51 51 -112 76 -183 76zM466 707
l-2 2c-81 80 -120 178 -120 292s39 210 120 291c80 80 178 121 292 121c113 0 210 -41 290 -121c81 -81 122 -177 122 -291c0 -103 -36 -193 -102 -269l-3 3c-36 36 -79 65 -129 86c-50 22 -103 33 -158 33s-107 -11 -157 -33c-50 -21 -93 -50 -130 -86
c-8 -9 -15 -19 -23 -28z" />
    <glyph glyph-name="contact_type" unicode="&#xf003;" horiz-adv-x="1511" 
d="M1492 270c15 -83 19 -151 19 -228c0 -85 -26 -153 -78 -202c-53 -51 -121 -76 -208 -76h-938c-87 0 -156 25 -209 76c-52 49 -78 117 -78 202c0 38 1 76 3 111c5 73 22 162 44 234c47 149 145 270 324 270c13 0 65 -37 125 -75c30 -19 68 -36 116 -51
c23 -8 45 -13 68 -16v-71h-227v76c0 32 -41 49 -64 26l-152 -151c-14 -15 -14 -39 0 -53l152 -152c23 -23 64 -5 64 27v76h227v-227h-76c-32 0 -49 -42 -26 -65l151 -151c15 -15 38 -15 53 0l152 151c23 23 5 65 -27 65h-76v227h227v-76c0 -32 42 -50 65 -27l151 152
c15 14 15 38 0 53l-151 151c-23 23 -65 6 -65 -26v-76h-227v71c23 3 45 9 67 16c49 16 87 33 116 51c61 39 113 75 126 75c135 0 222 -67 278 -166c38 -68 59 -136 74 -221zM680 596c-82 14 -154 51 -216 113c-81 80 -120 178 -120 292s39 210 120 291
c80 80 178 121 292 121c113 0 210 -41 290 -121c81 -81 122 -177 122 -291s-41 -211 -122 -292c-61 -62 -133 -99 -215 -113v75h76c32 0 50 41 27 64l-152 152c-15 14 -38 14 -53 0l-151 -152c-23 -23 -6 -64 26 -64h76v-75z" />
    <glyph glyph-name="contact_denomination" unicode="&#xf004;" horiz-adv-x="1643" 
d="M1352 207c16 17 24 36 24 59s-7 43 -24 60l-467 466c-17 17 -39 31 -67 42c-28 12 -54 18 -76 18h-147c23 0 48 -6 77 -18c28 -11 50 -25 66 -42l468 -466c16 -17 24 -37 24 -60s-8 -42 -24 -59l-308 -307c27 -27 42 -38 74 -38c22 0 42 7 59 24zM1492 270
c15 -83 19 -151 19 -228c0 -85 -26 -153 -78 -202c-53 -51 -121 -76 -208 -76h-938c-87 0 -156 25 -209 76c-52 49 -78 117 -78 202c0 38 1 76 3 111c5 73 22 162 44 234c7 22 16 43 25 64c4 -18 9 -37 17 -57c14 -34 33 -64 57 -88l468 -468c28 -29 65 -44 107 -44
c41 0 78 15 107 44l19 19c1 -2 2 -3 3 -4c30 -32 62 -59 122 -59c41 0 78 15 107 44l321 321c29 29 44 66 44 107c0 42 -15 79 -44 108l-277 277c8 4 14 6 17 6c135 0 222 -67 278 -166c38 -68 59 -136 74 -221zM595 920c-13 0 -25 -5 -36 -12c-24 7 -47 12 -68 12h-140
c-5 26 -8 53 -8 81c0 114 40 210 121 291c80 80 178 121 292 121c113 0 210 -41 290 -121c81 -81 122 -177 122 -291c0 -109 -39 -204 -113 -282l-122 121c-23 23 -53 42 -89 57c-38 15 -71 23 -102 23h-147zM1101 326c17 -17 24 -37 24 -60s-8 -42 -24 -59l-321 -321
c-17 -17 -36 -24 -59 -24s-43 8 -59 24l-467 468c-17 16 -31 38 -43 66c-11 28 -17 53 -17 76v272c0 23 9 43 25 59s36 25 59 25h272c23 0 48 -6 76 -18c28 -11 50 -25 67 -42zM403 583c16 17 25 37 25 60c0 22 -9 42 -25 58c-16 17 -36 25 -59 25s-43 -8 -59 -25
c-17 -16 -24 -36 -24 -58c0 -23 7 -43 24 -60c16 -16 36 -24 59 -24s43 8 59 24z" />
    <glyph glyph-name="tree" unicode="&#xf005;" horiz-adv-x="1322" 
d="M672 1152c4 -7 5 -15 5 -24c0 -14 -5 -29 -16 -42l-105 -129c-10 -13 -23 -23 -41 -32c-17 -8 -33 -12 -49 -12h-386c-22 0 -41 8 -57 24c-15 15 -23 34 -23 56v341c0 21 8 40 23 56c16 15 35 23 57 23h113c22 0 41 -8 56 -23c16 -16 24 -35 24 -56v-12h193
c21 0 40 -8 56 -23c15 -16 23 -35 23 -56v-57h68c26 0 49 -12 59 -34zM45 1334v-303l91 112c10 12 24 22 41 31c17 8 34 12 50 12h273v57c0 19 -16 34 -34 34h-205c-19 0 -34 15 -34 34v23c0 18 -15 34 -34 34h-113c-19 0 -35 -16 -35 -34zM626 1114c4 6 6 10 6 14
c0 8 -6 13 -19 13h-386c-9 0 -19 -3 -30 -8s-20 -11 -26 -19l-104 -129c-4 -5 -6 -10 -6 -14c0 -8 6 -12 19 -12h386c9 0 19 2 30 8c11 5 19 11 25 18zM1211 598c4 -7 5 -16 5 -24c0 -15 -5 -29 -16 -43l-105 -129c-10 -12 -23 -23 -41 -31c-17 -8 -34 -12 -49 -12h-387
c-21 0 -40 8 -56 24c-15 15 -23 34 -23 56v340c0 22 8 41 23 56c16 16 35 24 56 24h114c22 0 40 -8 56 -24c16 -15 23 -34 23 -56v-11h194c21 0 40 -8 56 -23c15 -16 23 -35 23 -56v-57h68c26 0 49 -12 59 -34zM584 779v-302l91 111c10 13 24 23 41 31s34 13 50 13h273v57
c0 18 -16 34 -34 34h-205c-19 0 -34 15 -34 34v22c0 19 -15 34 -34 34h-114c-18 0 -34 -15 -34 -34zM1165 560c4 5 6 10 6 14c0 8 -6 12 -19 12h-386c-10 0 -19 -2 -30 -8c-11 -5 -20 -11 -26 -18l-104 -129c-5 -5 -6 -10 -6 -14c0 -8 6 -12 18 -12h387c9 0 19 2 30 7
c11 6 19 12 25 19zM1211 3c4 -7 5 -15 5 -24c0 -14 -5 -29 -16 -42l-105 -129c-10 -13 -23 -23 -41 -31c-17 -9 -34 -13 -49 -13h-387c-21 0 -40 8 -56 24c-15 16 -23 34 -23 56v341c0 21 8 40 23 56c16 15 35 23 56 23h114c22 0 40 -8 56 -23c16 -16 23 -35 23 -56v-12h194
c21 0 40 -7 56 -23c15 -16 23 -35 23 -56v-57h68c26 0 49 -12 59 -34zM584 185v-303l91 112c10 12 24 22 41 31c17 8 34 12 50 12h273v57c0 19 -16 34 -34 34h-205c-19 0 -34 15 -34 34v23c0 18 -15 34 -34 34h-114c-18 0 -34 -16 -34 -34zM1165 -35c4 6 6 10 6 14
c0 8 -6 13 -19 13h-386c-10 0 -19 -3 -30 -8s-20 -11 -26 -19l-104 -128c-5 -6 -6 -11 -6 -15c0 -8 6 -12 18 -12h387c9 0 19 2 30 8c11 5 19 11 25 19zM311 -32h-93v945h93v-945zM563 656v-94h-308v94h308zM563 61v-93h-308v93h308z" />
    <glyph glyph-name="classification_plan" unicode="&#xf006;" horiz-adv-x="1359" 
d="M0 149h1250v-385h-1250v385zM854 -145v203h-428v-203h110v93h208v-93h110zM0 681h1250v-384h-1250v384zM854 387v204h-428v-204h110v93h208v-93h110zM992 1413l258 -200v-384h-1250v384l258 200h734zM854 919v204h-428v-204h110v93h208v-93h110z" />
    <glyph glyph-name="classification_plan_l1" unicode="&#xf007;" horiz-adv-x="2118" 
d="M1948 851v-824c0 -72 -25 -134 -77 -185c-51 -52 -114 -78 -185 -78h-1424c-71 0 -133 26 -185 78c-51 51 -77 113 -77 185v1124c0 71 26 133 77 185c52 51 114 77 185 77h375c71 0 133 -26 185 -77c51 -52 77 -114 77 -185v-38h787c71 0 134 -25 185 -77
c52 -51 77 -113 77 -185z" />
    <glyph glyph-name="classification_plan_l2" unicode="&#xf008;" horiz-adv-x="2391" 
d="M1798 851v-187h-974c-73 0 -149 -20 -230 -56c-81 -37 -145 -84 -192 -140l-395 -464l-6 -7c0 6 -1 24 -1 30v1124c0 71 26 133 77 185c52 51 114 77 185 77h375c71 0 133 -26 185 -77c51 -52 77 -114 77 -185v-38h637c72 0 134 -25 185 -77c52 -51 77 -113 77 -185z
M2200 448c0 -24 -13 -49 -36 -77l-394 -464c-34 -40 -80 -74 -141 -102c-60 -27 -116 -41 -168 -41h-1274c-52 0 -102 19 -102 66c0 25 13 50 37 77l393 464c34 40 81 74 141 101c61 28 117 42 168 42h1274c53 0 102 -19 102 -66z" />
    <glyph glyph-name="doctypes" unicode="&#xf009;" horiz-adv-x="2295" 
d="M1161 537c0 16 5 34 13 54s18 35 29 47l193 193c12 12 28 22 47 30c20 8 38 12 55 12h554c33 0 60 -26 60 -59v-990c0 -33 -27 -60 -60 -60h-831c-33 0 -60 27 -60 60v713zM1478 556v233c-12 -4 -20 -9 -25 -14l-194 -193c-5 -5 -9 -14 -14 -26h233zM1240 477v-633h792
v950h-475v-257c0 -33 -26 -60 -59 -60h-258zM317 1096v233c-12 -4 -21 -9 -26 -14l-193 -193c-5 -5 -10 -14 -14 -26h233zM950 1110l-79 -25v249h-475v-257c0 -33 -27 -60 -59 -60h-258v-633h539l6 -80h-565c-32 0 -59 27 -59 60v713c0 16 4 34 12 54s18 35 30 47l193 193
c12 12 27 22 47 30s38 12 55 12h554c33 0 59 -26 59 -59v-244zM886 826v233c-11 -4 -20 -9 -25 -14l-194 -193c-4 -5 -9 -14 -13 -26h232zM1520 844l-79 -28v248h-475v-257c0 -33 -27 -60 -60 -60h-257v-633h559l-1 -80h-578c-33 0 -59 27 -59 60v713c0 16 4 34 12 54
s18 35 30 47l193 193c12 12 27 22 47 30s38 12 54 12h555c32 0 59 -26 59 -59v-240zM234 899c-22 -24 -33 -50 -33 -80c0 -34 10 -60 30 -79c21 -19 52 -32 95 -40v-161c-33 3 -56 16 -68 38c-7 12 -12 32 -13 59h-52c0 -34 5 -61 16 -81c21 -36 60 -57 117 -61v-57h28v57
c35 4 63 12 81 25c34 22 51 59 51 111c0 36 -13 64 -39 82c-17 11 -48 23 -93 36v144c27 -1 47 -12 59 -32c7 -11 11 -23 12 -38h52c-1 33 -12 60 -33 80s-51 32 -90 35v38h-28v-39c-40 0 -70 -13 -92 -37zM273 777c-13 11 -19 26 -19 45c0 16 5 32 16 47c11 14 30 22 56 23
v-138c-22 4 -40 12 -53 23zM423 575c-12 -23 -36 -36 -69 -37v155c24 -7 42 -14 52 -21c18 -13 27 -32 27 -56c0 -16 -3 -30 -10 -41zM983 625h-62v-120l-116 42l-21 -60l117 -38l-73 -101l55 -38l71 105l69 -105l53 38l-72 101l117 38l-22 59l-116 -40v119zM1646 76h1
c85 0 151 66 151 151c0 83 -68 150 -151 150s-151 -67 -150 -152c0 -84 67 -149 149 -149z" />
    <glyph glyph-name="status" unicode="&#xf00a;" horiz-adv-x="2295" 
d="M1161 537c0 16 5 34 13 54s18 35 29 47l193 193c12 12 28 22 47 30c20 8 38 12 55 12h554c33 0 60 -26 60 -59v-990c0 -33 -27 -60 -60 -60h-831c-33 0 -60 27 -60 60v713zM1478 556v233c-12 -4 -20 -9 -25 -14l-194 -193c-5 -5 -9 -14 -14 -26h233zM1240 477v-633h792
v950h-475v-257c0 -33 -26 -60 -59 -60h-258zM317 1096v233c-12 -4 -21 -9 -26 -14l-193 -193c-5 -5 -10 -14 -14 -26h233zM950 1110l-79 -25v249h-475v-257c0 -33 -27 -60 -59 -60h-258v-633h539l6 -80h-565c-32 0 -59 27 -59 60v713c0 16 4 34 12 54s18 35 30 47l193 193
c12 12 27 22 47 30s38 12 55 12h554c33 0 59 -26 59 -59v-244zM886 826v233c-11 -4 -20 -9 -25 -14l-194 -193c-4 -5 -9 -14 -13 -26h232zM1520 844l-79 -28v248h-475v-257c0 -33 -27 -60 -60 -60h-257v-633h559l-1 -80h-578c-33 0 -59 27 -59 60v713c0 16 4 34 12 54
s18 35 30 47l193 193c12 12 27 22 47 30s38 12 54 12h555c32 0 59 -26 59 -59v-240zM543 862l-197 -320l-37 -61c-10 -16 -26 -16 -36 0l-37 61l-99 160c-10 16 -10 44 0 60l37 60c10 17 27 17 37 0l80 -130l178 290c10 17 27 17 37 0l37 -60c10 -16 10 -44 0 -60zM1092 321
l-41 -42c-11 -11 -30 -11 -41 0l-89 89l-89 -89c-11 -11 -30 -11 -41 0l-42 42c-11 11 -11 30 0 41l89 89l-89 89c-11 11 -11 30 0 41l42 41c11 12 30 12 41 0l89 -89l89 89c11 12 30 12 41 0l41 -41c12 -11 12 -30 0 -41l-89 -89l89 -89c12 -11 12 -30 0 -41zM1779 578
l-11 -378c0 -18 -12 -32 -25 -32h-97c-14 0 -25 14 -26 32l-10 378c-1 18 10 32 23 32h122c14 0 24 -14 24 -32zM1768 58v-111c0 -17 -12 -31 -25 -31h-97c-14 0 -25 14 -25 31v111c0 17 11 31 25 31h97c13 0 25 -14 25 -31z" />
    <glyph glyph-name="actions" unicode="&#xf00b;" horiz-adv-x="1792" 
d="M1773 595l-256 -256c-39 -39 -109 -9 -109 45v128h-1024v-128c0 -54 -70 -84 -109 -45l-256 256c-25 25 -25 65 0 90l256 256c39 39 109 9 109 -45v-128h1024v128c0 54 70 84 109 45l256 -256c25 -25 25 -65 0 -90z" />
    <glyph glyph-name="letter_reopen" unicode="&#xf00c;" horiz-adv-x="2265" 
d="M1269 472v-585c0 -13 -11 -25 -24 -25h-1123c-13 0 -24 12 -24 25v585s18 -15 440 -359c65 -52 145 -56 145 -56s81 4 145 56c422 344 441 359 441 359zM259 505v469h849v-469l-425 -350zM1331 802c-7 7 -105 83 -157 124v123h-156c-67 52 -248 197 -263 207
c-27 18 -54 27 -72 27c-19 0 -45 -9 -73 -27c-14 -10 -196 -155 -263 -207h-154v-122c-65 -51 -123 -97 -159 -125h1c-23 -24 -35 -52 -35 -86v-829c0 -34 12 -63 36 -87c23 -23 52 -36 86 -36h1123c33 0 62 13 86 36c24 24 36 53 36 87v829c0 34 -12 63 -36 86zM896 486
v107h-531v-107h531zM578 699v106h-213v-106h213zM1182 1196l-93 173c73 30 146 44 220 44c75 0 148 -14 221 -44c73 -29 137 -71 193 -127c106 -106 167 -250 171 -400l140 -1c22 0 37 -9 45 -29c8 -21 5 -38 -10 -54l-242 -241c-19 -19 -50 -19 -69 0l-242 241
c-15 15 -18 33 -10 54c8 20 23 29 45 29l148 1c-3 98 -43 191 -114 262c-108 108 -266 139 -403 92z" />
    <glyph glyph-name="docserver" unicode="&#xf00d;" horiz-adv-x="2150" 
d="M1958 479c14 -42 20 -74 20 -96v-412c0 -57 -20 -106 -60 -146s-89 -61 -146 -61h-1566c-57 0 -106 21 -146 61c-39 40 -60 89 -60 146v412c0 22 7 54 21 96l253 781c15 45 42 82 81 111c40 28 83 42 130 42h1008c47 0 90 -14 130 -42c40 -29 66 -66 81 -111zM431 1210
l-202 -621h1520l-202 621c-7 21 -30 38 -54 38h-1008c-24 0 -47 -17 -54 -38zM1813 -29v412c0 22 -19 41 -41 41h-1566c-22 0 -41 -19 -41 -41v-412c0 -22 19 -42 41 -42h1566c22 0 41 20 41 42zM1566 72c57 0 103 46 103 103s-46 104 -103 104s-103 -47 -103 -104
s46 -103 103 -103zM1237 72c57 0 103 46 103 103s-46 104 -103 104s-103 -47 -103 -104s46 -103 103 -103z" />
    <glyph glyph-name="docserver_location" unicode="&#xf00e;" horiz-adv-x="1272" 
d="M1072 130v-244c0 -13 -11 -24 -24 -24h-926c-13 0 -25 11 -25 24v244c0 13 12 24 25 24h926c13 0 24 -11 24 -24zM1158 187l-150 462c-9 26 -25 49 -48 65c-18 13 -36 19 -56 22c-14 -31 -29 -63 -44 -94h23c14 0 28 -10 32 -23l119 -367h-898l119 367c4 13 18 23 32 23
h47c-16 32 -32 65 -46 97h-1c-28 0 -53 -8 -77 -25c-23 -16 -39 -39 -48 -65l-150 -462c-8 -25 -12 -44 -12 -57v-244c0 -33 12 -62 36 -86c23 -23 52 -36 86 -36h926c33 0 62 13 86 36c24 24 36 53 36 86v244c0 13 -4 32 -12 57zM597 1328c-143 0 -259 -116 -259 -259
c0 -110 163 -418 259 -586c96 168 258 476 258 586c0 143 -116 259 -258 259zM597 356c-15 0 -29 8 -37 20c-31 53 -307 520 -307 693c0 190 154 344 344 344c189 0 344 -154 344 -344c0 -173 -276 -640 -308 -693c-7 -12 -21 -20 -36 -20zM731 -54c-33 0 -61 28 -61 61
c0 34 28 61 61 61c34 0 61 -27 61 -61c0 -33 -27 -61 -61 -61zM926 -54c-34 0 -61 28 -61 61c0 34 27 61 61 61s61 -27 61 -61c0 -33 -27 -61 -61 -61zM597 971c-54 0 -98 44 -98 98c0 55 44 99 98 99s98 -44 98 -99c0 -54 -44 -98 -98 -98z" />
    <glyph glyph-name="docserver_type" unicode="&#xf010;" horiz-adv-x="1527" 
d="M1051 -29c39 0 70 31 70 69c0 39 -31 70 -70 70c-38 0 -69 -31 -69 -70c0 -38 31 -69 69 -69zM830 -29c39 0 70 31 70 69c0 39 -31 70 -70 70c-38 0 -69 -31 -69 -70c0 -38 31 -69 69 -69zM914 1384c16 18 35 27 58 29c22 2 42 -5 60 -20l344 -294c18 -15 27 -34 29 -57
c1 -23 -5 -43 -20 -60l-429 -501c-15 -17 -35 -33 -62 -47c-27 -13 -52 -21 -75 -23l-270 -21c-23 -1 -43 6 -60 21c-18 14 -28 33 -29 56l-21 270c-2 23 2 49 11 78c9 28 22 51 37 69zM758 613c-4 54 -51 94 -105 90c-53 -5 -93 -51 -89 -105c4 -53 51 -93 105 -89
c53 4 93 51 89 104zM1180 658l134 -414c10 -28 14 -50 14 -64v-277c0 -38 -14 -71 -41 -98c-26 -27 -59 -41 -97 -41h-1052c-38 0 -71 14 -97 41c-27 27 -41 60 -41 98v277c0 14 5 36 14 64l170 524c10 31 28 56 55 75c26 19 55 28 87 28h89c-7 -12 -12 -25 -17 -40
c-8 -26 -12 -49 -13 -70h-59c-16 0 -32 -12 -36 -26l-136 -417h1020l-78 241zM1217 -97v277c0 14 -13 27 -27 27h-1052c-14 0 -27 -13 -27 -27v-277c0 -15 13 -28 27 -28h1052c14 0 27 13 27 28z" />
    <glyph glyph-name="letter" unicode="&#xf011;" horiz-adv-x="2281" 
d="M2043 1358c36 -36 55 -81 55 -132v-1274c0 -52 -19 -96 -55 -133c-36 -36 -81 -55 -132 -55h-1724c-51 0 -96 19 -132 55c-36 37 -55 81 -55 133v1274c0 51 19 96 55 132s81 55 132 55h1724c51 0 96 -19 132 -55zM1948 -48v899c-24 -28 -51 -54 -80 -77
c-210 -161 -376 -293 -499 -396c-40 -34 -73 -60 -97 -78c-25 -19 -59 -38 -102 -58c-42 -19 -82 -28 -120 -28h-1h-1c-38 0 -78 9 -121 28c-42 19 -76 39 -100 58c-25 18 -58 44 -98 78c-122 103 -289 235 -498 396c-30 23 -57 49 -81 77v-899c0 -20 17 -38 37 -38h1724
c20 0 37 18 37 38zM1893 1028c37 57 55 109 55 154c0 11 0 31 -1 44c0 21 -12 37 -36 37h-1724c-20 0 -37 -17 -37 -37c0 -131 57 -243 172 -333c151 -118 307 -242 470 -371c4 -4 18 -16 41 -35c21 -19 40 -33 53 -43c13 -11 30 -23 52 -38c43 -29 78 -42 110 -42h1h1
c32 0 67 14 109 42c23 15 40 27 53 38c13 10 32 24 54 43s36 31 41 35c163 129 319 253 469 371c43 34 81 78 117 135z" />
    <glyph glyph-name="letter_add" unicode="&#xf012;" horiz-adv-x="3458" 
d="M2357 1413c455 0 824 -369 824 -824s-369 -825 -824 -825s-824 370 -824 825s369 824 824 824zM2887 471c31 0 59 28 59 59v118c0 31 -28 59 -59 59h-412v412c0 31 -28 59 -59 59h-118c-31 0 -59 -28 -59 -59v-412h-412c-31 0 -59 -28 -59 -59v-118c0 -31 28 -59 59 -59
h412v-412c0 -31 28 -59 59 -59h118c31 0 59 28 59 59v412h412zM1731 -85c58 -54 122 -101 192 -138c-17 -6 -35 -9 -54 -9h-1686c-50 0 -94 18 -129 54c-36 35 -54 79 -54 129v1246c0 51 18 94 54 130c35 35 79 54 129 54h1686c6 0 11 -1 17 -2c-68 -40 -130 -89 -186 -145
h-1517c-19 0 -36 -17 -36 -37c0 -128 56 -237 168 -325c148 -116 300 -237 459 -363c5 -4 18 -15 40 -34s40 -32 53 -43c13 -10 29 -22 50 -36c42 -29 77 -42 108 -42h1h1c31 0 66 14 107 42c22 14 39 26 51 36c13 11 32 24 53 43c22 19 36 30 40 34c55 43 107 84 160 126
c-1 -15 -2 -30 -2 -46c0 -45 4 -89 10 -133c-38 -31 -75 -61 -107 -88c-39 -33 -71 -58 -95 -77c-24 -18 -57 -37 -100 -56c-41 -18 -80 -27 -117 -27h-1h-1c-37 0 -76 8 -118 27c-41 19 -74 38 -98 56c-24 19 -56 44 -95 77c-120 101 -284 230 -488 387
c-29 23 -55 48 -79 76v-880c0 -19 17 -36 36 -36h1548z" />
    <glyph glyph-name="letter_search" unicode="&#xf013;" horiz-adv-x="3458" 
d="M1731 -85c58 -54 122 -101 192 -138c-17 -6 -35 -9 -54 -9h-1686c-50 0 -94 18 -129 54c-36 35 -54 79 -54 129v1246c0 51 18 94 54 130c35 35 79 54 129 54h1686c6 0 11 -1 17 -2c-68 -40 -130 -89 -186 -145h-1517c-19 0 -36 -17 -36 -37c0 -128 56 -237 168 -325
c148 -116 300 -237 459 -363c5 -4 18 -15 40 -34s40 -32 53 -43c13 -10 29 -22 50 -36c42 -29 77 -42 108 -42h1h1c31 0 66 14 107 42c22 14 39 26 52 36c12 11 31 24 52 43c22 19 36 30 40 34c55 43 107 84 160 126c-1 -15 -2 -30 -2 -46c0 -45 4 -89 10 -133
c-38 -31 -75 -61 -107 -88c-39 -33 -71 -58 -95 -77c-24 -18 -57 -37 -100 -56c-41 -18 -80 -27 -117 -27h-1h-1c-37 0 -76 8 -118 27c-41 19 -74 38 -98 56c-24 19 -56 44 -95 77c-120 101 -284 230 -488 387c-29 23 -55 48 -79 76v-880c0 -19 17 -36 36 -36h1548z
M2357 1413c455 0 824 -369 824 -824s-369 -825 -824 -825s-824 370 -824 825s369 824 824 824zM2436 232c241 0 437 195 437 436s-196 437 -437 437s-436 -196 -436 -437c0 -92 28 -176 77 -247v0l-213 -213c-31 -31 -31 -81 0 -112s81 -30 112 1l213 212v0
c71 -49 155 -77 247 -77zM2715 667c0 154 -125 279 -279 279s-279 -125 -279 -279s125 -279 279 -279s279 125 279 279z" />
    <glyph glyph-name="letter_del" unicode="&#xf014;" horiz-adv-x="3181" 
d="M2357 1413c455 0 824 -369 824 -824s-369 -825 -824 -825s-824 370 -824 825s369 824 824 824zM2880 317l-272 272l272 272c34 34 34 91 0 125l-126 126c-34 34 -91 34 -125 0l-272 -272l-272 272c-34 34 -91 34 -126 0l-125 -126c-35 -34 -35 -91 0 -125l271 -272
l-271 -272c-35 -34 -35 -92 0 -126l125 -125c35 -35 92 -35 126 0l272 271l272 -271c34 -35 91 -35 125 0l126 125c34 34 34 92 0 126zM1731 -85c58 -54 122 -101 192 -138c-17 -6 -35 -9 -54 -9h-1686c-50 0 -94 18 -129 54c-36 35 -54 79 -54 129v1246c0 51 18 94 54 130
c35 35 79 54 129 54h1686c6 0 11 -1 17 -2c-68 -40 -130 -89 -186 -145h-1517c-19 0 -36 -17 -36 -37c0 -128 56 -237 168 -325c148 -116 300 -237 459 -363c5 -4 18 -15 40 -34s40 -32 53 -43c13 -10 29 -22 50 -36c42 -29 77 -42 108 -42h1h1c31 0 66 14 107 42
c22 14 39 26 51 36c13 11 32 24 53 43c22 19 36 30 40 34c55 43 107 84 160 126c-1 -15 -2 -30 -2 -46c0 -45 4 -89 10 -133c-38 -31 -75 -61 -107 -88c-39 -33 -71 -58 -95 -77c-24 -18 -57 -37 -100 -56c-41 -18 -80 -27 -117 -27h-1h-1c-37 0 -76 8 -118 27
c-41 19 -74 38 -98 56c-24 19 -56 44 -95 77c-120 101 -284 230 -488 387c-29 23 -55 48 -79 76v-880c0 -19 17 -36 36 -36h1548z" />
    <glyph glyph-name="letter_incoming" unicode="&#xf015;" horiz-adv-x="3181" 
d="M2357 1413c455 0 824 -369 824 -824s-369 -825 -824 -825s-824 370 -824 825s369 824 824 824zM2931 514c21 21 31 45 31 75s-11 54 -31 74l-535 535c-20 20 -46 31 -75 31c-28 0 -53 -11 -73 -31l-62 -62c-20 -20 -31 -44 -31 -74c0 -29 11 -54 31 -74l241 -241h-579
c-29 0 -52 -11 -70 -32c-17 -20 -26 -45 -26 -74v-105c0 -29 9 -54 26 -75c18 -20 41 -30 70 -30h579l-241 -241c-21 -20 -31 -46 -31 -75c0 -28 10 -54 31 -74l62 -62c21 -21 46 -30 73 -30c29 0 54 9 75 30zM1731 -85c58 -54 122 -101 192 -138c-17 -6 -35 -9 -54 -9
h-1686c-50 0 -94 18 -129 54c-36 35 -54 79 -54 129v1246c0 51 18 94 54 130c35 35 79 54 129 54h1686c6 0 11 -1 17 -2c-68 -40 -130 -89 -186 -145h-1517c-19 0 -36 -17 -36 -37c0 -128 56 -237 168 -325c148 -116 300 -237 459 -363c5 -4 18 -15 40 -34s40 -32 53 -43
c13 -10 29 -22 50 -36c42 -29 77 -42 108 -42h1h1c31 0 66 14 107 42c22 14 39 26 51 36c13 11 32 24 53 43c22 19 36 30 40 34c55 43 107 84 160 126c-1 -15 -2 -30 -2 -46c0 -45 4 -89 10 -133c-38 -31 -75 -61 -107 -88c-39 -33 -71 -58 -95 -77
c-24 -18 -57 -37 -100 -56c-41 -18 -80 -27 -117 -27h-1h-1c-37 0 -76 8 -118 27c-41 19 -74 38 -98 56c-24 19 -56 44 -95 77c-120 101 -284 230 -488 387c-29 23 -55 48 -79 76v-880c0 -19 17 -36 36 -36h1548z" />
    <glyph glyph-name="letter_outgoing" unicode="&#xf016;" horiz-adv-x="3181" 
d="M2357 1413c455 0 824 -369 824 -824s-369 -825 -824 -825s-824 370 -824 825s369 824 824 824zM2935 461c18 21 27 46 27 75v105c0 29 -9 54 -27 74c-17 21 -41 32 -69 32h-579l241 241c20 20 31 45 31 74c0 30 -11 54 -31 74l-62 62c-20 20 -45 31 -74 31
s-54 -11 -75 -31l-535 -535c-19 -20 -30 -44 -30 -74s10 -54 30 -75l535 -535c21 -21 46 -30 75 -30c28 0 53 9 74 30l62 62c20 20 31 46 31 74c0 29 -11 55 -31 75l-241 241h579c28 0 52 10 69 30zM1731 -85c58 -54 122 -101 192 -138c-17 -6 -35 -9 -54 -9h-1686
c-50 0 -94 18 -129 54c-36 35 -54 79 -54 129v1246c0 51 18 94 54 130c35 35 79 54 129 54h1686c6 0 11 -1 17 -2c-68 -40 -130 -89 -186 -145h-1517c-19 0 -36 -17 -36 -37c0 -128 56 -237 168 -325c148 -116 300 -237 459 -363c5 -4 18 -15 40 -34s40 -32 53 -43
c13 -10 29 -22 50 -36c42 -29 77 -42 108 -42h1h1c31 0 66 14 107 42c22 14 39 26 51 36c13 11 32 24 53 43c22 19 36 30 40 34c55 43 107 84 160 126c-1 -15 -2 -30 -2 -46c0 -45 4 -89 10 -133c-38 -31 -75 -61 -107 -88c-39 -33 -71 -58 -95 -77
c-24 -18 -57 -37 -100 -56c-41 -18 -80 -27 -117 -27h-1h-1c-37 0 -76 8 -118 27c-41 19 -74 38 -98 56c-24 19 -56 44 -95 77c-120 101 -284 230 -488 387c-29 23 -55 48 -79 76v-880c0 -19 17 -36 36 -36h1548z" />
    <glyph glyph-name="letter_internal" unicode="&#xf017;" horiz-adv-x="3181" 
d="M2357 1413c455 0 824 -369 824 -824s-369 -825 -824 -825s-824 370 -824 825s369 824 824 824zM2851 133c55 54 97 118 130 193c32 75 48 153 48 235s-16 160 -48 234c-33 75 -75 139 -130 193c-54 55 -118 97 -192 129c-75 33 -153 48 -235 48
c-154 0 -304 -60 -417 -166l-102 101c-16 16 -34 20 -54 11c-22 -9 -32 -24 -32 -46v-353c0 -28 23 -51 51 -51h352c22 0 38 11 47 32c8 21 5 38 -11 54l-108 109c73 69 171 108 274 108c221 0 403 -182 403 -403c0 -222 -182 -404 -403 -404c-125 0 -242 57 -318 157
c-4 6 -10 9 -18 10c-8 0 -15 -2 -20 -7l-108 -109c-9 -9 -9 -24 -1 -34c56 -70 126 -123 207 -161c82 -38 167 -57 258 -57c82 0 160 16 235 48c74 32 138 75 192 129zM1731 -85c58 -54 122 -101 192 -138c-17 -6 -35 -9 -54 -9h-1686c-50 0 -94 18 -129 54
c-36 35 -54 79 -54 129v1246c0 51 18 94 54 130c35 35 79 54 129 54h1686c6 0 11 -1 17 -2c-68 -40 -130 -89 -186 -145h-1517c-19 0 -36 -17 -36 -37c0 -128 56 -237 168 -325c148 -116 300 -237 459 -363c5 -4 18 -15 40 -34s40 -32 53 -43c13 -10 29 -22 50 -36
c42 -29 77 -42 108 -42h1h1c31 0 66 14 107 42c22 14 39 26 51 36c13 11 32 24 53 43c22 19 36 30 40 34c55 43 107 84 160 126c-1 -15 -2 -30 -2 -46c0 -45 4 -89 10 -133c-38 -31 -75 -61 -107 -88c-39 -33 -71 -58 -95 -77c-24 -18 -57 -37 -100 -56
c-41 -18 -80 -27 -117 -27h-1h-1c-37 0 -76 8 -118 27c-41 19 -74 38 -98 56c-24 19 -56 44 -95 77c-120 101 -284 230 -488 387c-29 23 -55 48 -79 76v-880c0 -19 17 -36 36 -36h1548z" />
    <glyph glyph-name="letter_status_new" unicode="&#xf018;" horiz-adv-x="2976" 
d="M2504 1300l-293 -321l-431 59l215 -377l-190 -391l426 87l313 -301l49 432l383 204l-396 180zM1948 198l150 31v-371c0 -52 -19 -96 -55 -132c-36 -37 -81 -55 -132 -55h-1724c-51 0 -96 18 -132 55c-36 36 -55 80 -55 132v1274c0 51 19 96 55 132s81 55 132 55h1724
c51 0 96 -19 132 -55s55 -81 55 -132v-37l-150 20c0 6 0 12 -1 17c0 21 -12 37 -36 37h-1724c-20 0 -37 -17 -37 -37c0 -131 57 -243 172 -333c151 -118 307 -242 470 -371c4 -3 18 -15 41 -35c21 -19 40 -33 53 -43c13 -11 30 -23 52 -38c43 -29 78 -42 110 -42h1h1
c32 0 67 14 109 42c23 15 40 27 53 38c13 10 32 24 54 43c22 20 36 32 41 35c163 129 319 253 469 371c6 5 11 12 17 17l76 -135l-1 -1c-210 -161 -376 -293 -499 -396c-40 -34 -73 -60 -97 -78c-25 -19 -59 -38 -102 -58c-42 -19 -82 -28 -120 -28h-1h-1
c-38 0 -78 9 -121 28c-42 20 -76 39 -100 58c-25 18 -58 44 -98 78c-122 103 -289 235 -498 396c-30 23 -57 49 -81 77v-899c0 -20 17 -37 37 -37h1724c20 0 37 17 37 37v340z" />
    <glyph glyph-name="letter_status_wait" unicode="&#xf019;" horiz-adv-x="3056" 
d="M2344 514c-10 129 -34 161 -34 161c-23 33 -226 249 -240 267c-15 18 -32 47 -9 35c34 -17 130 -97 283 -97c152 0 249 80 283 97c23 12 6 -17 -9 -35s-217 -234 -240 -267c-23 -30 -33 -149 -34 -160c0 3 1 11 1 23c0 0 -1 -15 -1 -24zM2636 51c32 -26 67 -62 35 -82
c0 0 -91 -59 -327 -59s-327 59 -327 59c-32 20 3 56 35 82s226 117 252 141c27 23 31 44 40 67c9 -23 13 -44 39 -67c27 -24 220 -115 253 -141zM2742 293c47 -47 57 -162 57 -196v-166c0 -132 -286 -167 -455 -167s-455 35 -455 167v164c0 36 10 151 57 198
c38 38 213 238 229 267c4 9 8 47 -13 65c-30 25 -128 136 -220 240l-22 25c-37 42 -47 140 -32 338c0 9 1 15 1 18v1c0 131 286 166 455 166c166 0 445 -34 454 -160v0c7 -46 38 -278 -29 -362c-21 -26 -201 -231 -243 -266c-21 -18 -17 -56 -12 -67
c15 -27 190 -227 228 -265zM2344 1327c-236 0 -357 -57 -368 -81c8 -19 99 -63 273 -76c29 -2 61 -3 95 -3c239 0 360 58 369 81c-9 21 -130 79 -369 79zM2713 -65c-1 73 24 240 -32 296c4 -3 6 -6 0 0c-13 14 -6 7 -1 1c-90 90 -307 269 -244 412c32 75 131 148 184 209
c87 98 111 155 102 294c-198 -104 -555 -101 -752 -2c-4 -90 -13 -166 47 -234c42 -48 84 -96 127 -143c40 -44 103 -90 117 -150c23 -104 -75 -185 -136 -255c-80 -91 -144 -142 -150 -270c-2 -46 -24 -155 23 -181c128 -73 315 -68 456 -57c32 3 259 21 259 80zM1724 -82
c57 -54 121 -100 190 -138c-17 -5 -34 -8 -53 -8h-1679c-50 0 -93 18 -128 53c-36 36 -54 79 -54 129v1241c0 50 18 93 54 129c35 35 78 53 128 53h1679c6 0 11 -1 16 -1c-67 -41 -129 -89 -184 -145h-1511c-19 0 -36 -17 -36 -36c0 -128 56 -236 168 -324
c147 -115 298 -236 457 -362c4 -3 18 -15 40 -34c21 -18 40 -32 52 -42c13 -10 29 -22 50 -36c42 -29 77 -42 108 -42h1h1c31 0 65 14 106 42c22 14 39 26 51 36c13 10 31 24 53 42c22 19 35 31 40 34c54 43 106 84 159 126c-1 -15 -3 -31 -3 -46c0 -45 5 -89 11 -132
c-39 -31 -75 -61 -107 -88c-39 -33 -71 -58 -95 -76c-24 -19 -57 -37 -99 -56c-41 -19 -80 -28 -116 -28h-1h-1c-37 0 -76 9 -118 28c-41 19 -74 37 -98 56c-24 18 -56 43 -95 76c-119 101 -282 229 -485 386c-29 22 -55 47 -79 75v-876c0 -19 17 -36 36 -36h1542zM2344 523
v-1v1z" />
    <glyph glyph-name="letter_status_inprogress" unicode="&#xf01a;" horiz-adv-x="3008" 
d="M1688 -65h-1509c-19 0 -36 17 -36 36v858c23 -27 49 -52 77 -74c200 -154 359 -279 476 -378c38 -32 69 -57 93 -74c23 -18 55 -37 96 -55c41 -19 79 -27 115 -27h1h1c36 0 74 9 114 27c41 19 74 37 97 55c24 17 55 42 93 74c31 27 67 56 105 86c-7 43 -11 86 -11 130
c0 15 2 30 3 45c-52 -41 -103 -81 -156 -123c-5 -4 -18 -15 -39 -34c-21 -18 -40 -31 -52 -41s-29 -21 -50 -36c-40 -27 -74 -40 -104 -40h-1h-1c-30 0 -64 13 -105 40c-21 14 -37 26 -49 36c-13 10 -31 23 -52 41c-21 19 -34 30 -39 34c-155 122 -304 241 -448 354
c-109 86 -164 192 -164 317c0 19 17 36 36 36h1479c54 55 115 102 181 141c-5 1 -10 2 -16 2h-1644c-49 0 -92 -18 -126 -53c-35 -34 -53 -77 -53 -126v-1215c0 -49 18 -92 53 -127c34 -34 77 -52 126 -52h1644c19 0 36 3 53 8c-69 37 -131 83 -188 135zM2834 925
c-96 0 -174 78 -174 174s78 174 174 174s174 -78 174 -174s-78 -174 -174 -174zM2752 -129c-38 0 -70 32 -70 71c0 38 32 70 70 70c39 0 70 -32 70 -70c0 -39 -31 -71 -70 -71zM2404 1082c-92 0 -166 74 -166 165c0 92 74 166 166 166c91 0 166 -74 166 -166
c0 -91 -75 -165 -166 -165zM2404 -236c-46 0 -84 38 -84 84s38 84 84 84s84 -38 84 -84s-38 -84 -84 -84zM2055 -156c-53 0 -97 44 -97 98c0 53 44 97 97 97c54 0 98 -44 98 -97c0 -54 -44 -98 -98 -98zM1840 17c-62 0 -111 50 -111 111c0 62 49 111 111 111
c61 0 111 -49 111 -111c0 -61 -50 -111 -111 -111zM1583 428c0 69 56 125 125 125s125 -56 125 -125s-56 -125 -125 -125s-125 56 -125 125zM1753 945c76 0 138 -62 138 -138s-62 -138 -138 -138c-77 0 -139 62 -139 138s62 138 139 138zM1995 1267c84 0 152 -68 152 -152
s-68 -152 -152 -152s-152 68 -152 152s68 152 152 152z" />
    <glyph glyph-name="letter_status_validated" unicode="&#xf01b;" horiz-adv-x="3181" 
d="M2357 1413c455 0 824 -369 824 -824s-369 -825 -824 -825s-824 370 -824 825s369 824 824 824zM2824 791c22 31 22 82 0 112l-83 111c-23 31 -60 31 -83 0l-400 -538l-179 242c-23 30 -61 30 -83 0l-83 -112c-23 -30 -23 -81 0 -111l221 -297l83 -111c22 -31 60 -31 82 0
l83 111zM1731 -85c58 -54 122 -101 192 -138c-17 -6 -35 -9 -54 -9h-1686c-50 0 -94 18 -129 54c-36 35 -54 79 -54 129v1246c0 51 18 94 54 130c35 35 79 54 129 54h1686c6 0 11 -1 17 -2c-68 -40 -130 -89 -186 -145h-1517c-19 0 -36 -17 -36 -37c0 -128 56 -237 168 -325
c148 -116 300 -237 459 -363c5 -4 18 -15 40 -34s40 -32 53 -43c13 -10 29 -22 50 -36c42 -29 77 -42 108 -42h1h1c31 0 66 14 107 42c22 14 39 26 51 36c13 11 32 24 53 43c22 19 36 30 40 34c55 43 107 84 160 126c-1 -15 -2 -30 -2 -46c0 -45 4 -89 10 -133
c-38 -31 -75 -61 -107 -88c-39 -33 -71 -58 -95 -77c-24 -18 -57 -37 -100 -56c-41 -18 -80 -27 -117 -27h-1h-1c-37 0 -76 8 -118 27c-41 19 -74 38 -98 56c-24 19 -56 44 -95 77c-120 101 -284 230 -488 387c-29 23 -55 48 -79 76v-880c0 -19 17 -36 36 -36h1548z" />
    <glyph glyph-name="letter_status_rejected" unicode="&#xf01c;" horiz-adv-x="3044" 
d="M1723 -46c57 -53 121 -100 191 -137c-17 -6 -35 -9 -54 -9h-1678c-50 0 -93 18 -128 54c-36 35 -54 78 -54 128v1241c0 50 18 93 54 128c35 36 78 54 128 54h1678c6 0 11 -1 17 -1c-68 -41 -130 -89 -185 -145h-1510c-19 0 -36 -17 -36 -36c0 -128 56 -236 167 -324
c147 -115 299 -236 458 -361c4 -4 18 -16 40 -35c21 -18 39 -32 52 -42c12 -10 29 -22 50 -36c42 -28 76 -41 107 -41h1h2c30 0 65 13 106 41c21 14 38 26 51 36c12 10 31 24 52 42c22 19 36 31 40 35c55 42 106 84 159 125c-1 -15 -2 -30 -2 -46c0 -45 4 -89 10 -132
c-38 -31 -74 -61 -106 -88c-39 -32 -71 -58 -95 -76s-57 -37 -99 -56c-41 -18 -80 -27 -116 -27h-2h-1c-36 0 -75 8 -117 27c-41 19 -74 38 -98 56s-56 44 -95 76c-119 101 -282 229 -485 386c-29 22 -55 48 -79 75v-876c0 -19 17 -36 36 -36h1541zM2998 636
c31 -46 46 -98 46 -153c0 -65 -24 -120 -71 -168c-48 -48 -104 -71 -169 -71h-165c30 -62 45 -122 45 -180c0 -74 -11 -132 -33 -174c-44 -86 -132 -126 -237 -126c-32 0 -60 12 -84 35c-42 41 -68 110 -75 162s-21 113 -45 139c-29 31 -64 71 -100 119
c-63 81 -106 130 -129 145h-256c-33 0 -62 11 -85 35c-24 23 -35 52 -35 85v599c0 33 11 61 35 85c23 23 52 35 85 35h270c14 0 57 13 129 38c79 27 150 47 209 62c59 14 122 20 187 20h105c87 0 158 -24 212 -74s80 -117 80 -202v-5c38 -48 56 -104 56 -167
c0 -14 0 -27 -2 -40c23 -42 35 -87 35 -135c0 -22 -3 -44 -8 -64zM1827 981c23 24 23 61 0 85c-23 23 -61 23 -84 0c-24 -24 -24 -61 0 -85c23 -23 61 -23 84 0zM2887 400c25 24 37 52 37 84c0 21 -7 47 -21 76c-13 29 -30 43 -49 44c18 21 32 65 32 96c0 43 -16 81 -49 112
c11 19 17 41 17 64c0 46 -24 99 -61 118c3 19 4 37 4 53c0 106 -64 156 -173 156h-120c-81 0 -189 -19 -320 -68l-27 -10l-67 -23c-37 -13 -66 -19 -95 -19h-30v-599h30c31 0 69 -31 106 -68c11 -10 24 -24 38 -41c14 -16 24 -29 32 -39l30 -39c12 -15 19 -25 21 -28
c34 -43 59 -71 72 -85c26 -27 44 -61 56 -103c11 -41 21 -81 29 -117c7 -37 19 -64 35 -80c60 0 100 15 120 44s30 75 30 136c0 37 -15 87 -45 150c-30 64 -45 113 -45 150h330c31 0 59 12 83 36z" />
    <glyph glyph-name="letter_status_end" unicode="&#xf01d;" horiz-adv-x="3158" 
d="M2377 1413h99c28 0 50 -27 50 -61v-731c0 -34 -22 -61 -50 -61h-99c-27 0 -50 27 -50 61v731c0 34 23 61 50 61zM1833 -75v0c-6 -11 -18 -19 -30 -19h-1626c-19 0 -36 16 -36 35v849c24 -27 49 -52 77 -73c197 -152 354 -276 470 -374c38 -32 69 -56 92 -74
c23 -17 55 -36 95 -54s78 -26 114 -26h1h1c35 0 73 8 112 26c41 19 73 37 97 54c23 18 54 42 91 74c54 46 118 97 190 154c-2 20 -3 39 -3 59c0 22 1 43 3 65c2 20 4 40 7 60c-83 -66 -168 -133 -255 -202c-5 -3 -18 -15 -39 -33s-39 -31 -51 -41s-28 -21 -50 -35
c-39 -27 -72 -40 -102 -40h-1h-1c-30 0 -64 13 -104 40c-21 13 -37 25 -49 35s-30 23 -51 41s-34 30 -38 33c-154 121 -301 239 -443 350c-109 85 -163 190 -163 314c0 19 17 35 36 35h1626c5 0 9 -1 13 -2v0c21 14 42 26 64 38v0c22 11 44 21 67 30v0c-6 8 -12 16 -20 24
c-34 34 -76 52 -124 52h-1626c-49 0 -91 -18 -125 -52s-52 -76 -52 -125v-1202c0 -48 18 -90 52 -125c34 -34 76 -52 125 -52h1626c48 0 90 18 124 52c15 14 25 30 33 47c-44 16 -86 36 -127 62zM2649 1267v-230c175 -83 296 -261 296 -467c0 -287 -232 -519 -518 -519
s-518 232 -518 519c0 206 120 384 295 467v230c-295 -95 -509 -371 -509 -697c0 -404 328 -732 732 -732s731 328 731 732c0 326 -213 602 -509 697z" />
    <glyph glyph-name="letter_status_newmail" unicode="&#xf01e;" horiz-adv-x="2976" 
d="M1279 38l-26 84c-59 -30 -138 -46 -213 -46c-218 0 -374 139 -374 384c0 279 196 455 420 455c227 0 349 -148 349 -338c0 -168 -79 -249 -141 -247c-41 1 -51 40 -37 127l44 271c-37 20 -110 36 -174 36c-211 0 -343 -162 -343 -341c0 -120 69 -190 164 -190
c78 0 144 38 189 113h3c7 -78 57 -113 126 -113c158 0 278 135 278 348c0 246 -185 423 -442 423c-331 0 -548 -259 -548 -557c0 -287 214 -461 457 -461c104 0 180 11 268 52zM1149 643l-21 -139c-12 -85 -70 -154 -124 -154c-49 0 -73 35 -73 91c0 112 76 208 172 208
c19 0 34 -3 46 -6zM2504 1300l-293 -321l-431 59l215 -377l-190 -391l426 87l313 -301l49 432l383 204l-396 180zM1948 198l150 31v-371c0 -52 -19 -96 -55 -132c-36 -37 -81 -55 -132 -55h-1724c-51 0 -96 18 -132 55c-36 36 -55 80 -55 132v1274c0 51 19 96 55 132
s81 55 132 55h1724c51 0 96 -19 132 -55s55 -81 55 -132v-37l-150 20c0 6 0 12 -1 17c0 21 -12 37 -36 37h-1724c-20 0 -37 -17 -37 -37c0 -131 57 -243 172 -333c55 -43 112 -88 168 -133c-16 -51 -28 -106 -32 -163c-70 55 -144 113 -227 177c-30 23 -57 49 -81 77v-899
c0 -20 17 -37 37 -37h1724c20 0 37 17 37 37v340zM1633 686c48 38 96 76 143 113c6 5 11 11 17 17l76 -135l-1 -1c-85 -65 -160 -124 -230 -179c3 26 5 53 5 80c0 37 -4 72 -10 105z" />
    <glyph glyph-name="letter_status_info" unicode="&#xf021;" horiz-adv-x="3181" 
d="M1731 -85c58 -54 122 -101 192 -138c-17 -6 -35 -9 -54 -9h-1686c-50 0 -94 18 -129 54c-36 35 -54 79 -54 129v1246c0 51 18 94 54 130c35 35 79 54 129 54h1686c6 0 11 -1 17 -2c-68 -40 -130 -89 -186 -145h-1517c-19 0 -36 -17 -36 -37c0 -128 56 -237 168 -325
c148 -116 300 -237 459 -363c5 -4 18 -15 40 -34s40 -32 53 -43c13 -10 29 -22 50 -36c42 -29 77 -42 108 -42h1h1c31 0 66 14 107 42c22 14 39 26 51 36c13 11 32 24 53 43c22 19 36 30 40 34c55 43 107 84 160 126c-1 -15 -2 -30 -2 -46c0 -45 4 -89 10 -133
c-38 -31 -75 -61 -107 -88c-39 -33 -71 -58 -95 -77c-24 -18 -57 -37 -100 -56c-41 -18 -80 -27 -117 -27h-1h-1c-37 0 -76 8 -118 27c-41 19 -74 38 -98 56c-24 19 -56 44 -95 77c-120 101 -284 230 -488 387c-29 23 -55 48 -79 76v-880c0 -19 17 -36 36 -36h1548z
M2357 1413c455 0 824 -369 824 -824s-369 -825 -824 -825s-824 370 -824 825s369 824 824 824zM2509 -119v986h-306v-986h306zM2354 988c101 0 166 69 165 153c-1 89 -64 155 -163 155s-161 -66 -161 -155c0 -84 62 -153 159 -153z" />
    <glyph glyph-name="letter_status_attr" unicode="&#xf022;" horiz-adv-x="3859" 
d="M2790 1292c80 -81 121 -177 121 -291s-41 -211 -121 -292c-81 -80 -177 -120 -291 -120s-212 39 -292 120c-81 80 -120 178 -120 292s39 210 120 291c80 80 178 121 292 121s210 -41 291 -121zM3859 636c0 71 -23 135 -67 195c-88 119 -229 188 -368 188
c-194 0 -341 -85 -443 -255c-12 -19 -9 -36 9 -50l158 -120c6 -4 13 -7 23 -7c13 0 22 5 30 15c41 54 76 91 102 110c28 19 61 28 103 28c38 0 72 -10 102 -31c29 -20 45 -44 45 -70c0 -61 -29 -92 -105 -127c-50 -23 -97 -57 -139 -104c-42 -46 -62 -95 -62 -149v-43
c0 -23 16 -38 38 -38h230c22 0 38 15 38 38c0 30 38 88 91 118c25 14 45 25 58 33c13 9 33 23 55 42c23 20 41 40 53 58c25 38 49 99 49 169zM1653 -193c12 -12 27 -22 41 -32h-1522c-47 0 -88 17 -122 50c-33 34 -50 74 -50 122v1167c0 48 17 88 50 122c34 33 75 50 122 50
h1580c47 0 88 -17 121 -50c33 -34 50 -74 50 -122v-305c-50 -11 -96 -31 -137 -59v21c-23 -26 -47 -50 -74 -71c-192 -147 -345 -268 -457 -363c-37 -31 -67 -54 -89 -72c-23 -17 -54 -34 -94 -52c-38 -18 -75 -26 -109 -26h-1h-1c-35 0 -71 8 -111 26c-39 17 -70 35 -92 52
c-23 18 -53 41 -89 72c-113 95 -266 216 -458 363c-27 21 -51 45 -74 71v-824c0 -19 16 -35 35 -35h1406c19 -39 42 -75 75 -105zM172 1149c-19 0 -35 -16 -35 -35c0 -120 53 -222 158 -304c139 -109 281 -223 431 -341c4 -3 16 -14 37 -32c20 -17 38 -30 50 -40
c11 -9 27 -21 47 -34c39 -26 72 -39 101 -39h1h1c29 0 61 13 100 39c20 14 36 25 48 34c12 10 29 23 49 40c21 18 34 29 38 32c149 118 292 232 430 341c39 30 75 71 108 123s50 100 50 142c0 9 0 28 -1 39c0 20 -11 35 -33 35h-1580zM3106 -170c0 -12 1 -24 4 -35
c-41 -19 -87 -31 -142 -31h-938c-87 0 -156 25 -208 76c-53 49 -79 117 -79 202c0 38 1 76 3 111c6 73 22 162 44 234c48 149 145 270 325 270c13 0 65 -37 124 -75c30 -19 69 -36 116 -51c48 -16 96 -23 144 -23s96 8 143 23c48 16 87 33 116 51c42 27 79 52 103 66
c-1 -45 20 -88 59 -118l143 -108c25 -19 55 -29 88 -29c5 0 11 1 17 1c-41 -55 -62 -117 -62 -182v-39c0 -25 6 -48 17 -69c-11 -20 -17 -43 -17 -68v-206zM3553 -167v230c0 22 -16 38 -38 38h-230c-22 0 -38 -16 -38 -38v-230c0 -22 16 -38 38 -38h230c22 0 38 16 38 38z
" />
    <glyph glyph-name="letter_status_arev" unicode="&#xf023;" horiz-adv-x="3247" 
d="M3247 589c0 -56 -5 -110 -16 -164c9 -12 16 -26 16 -42v-481c0 -30 -14 -51 -43 -63c-28 -12 -52 -7 -74 15l-139 138c-3 -3 -7 -5 -9 -8c-16 -14 -32 -28 -48 -41c-5 -3 -9 -6 -13 -9c-16 -12 -32 -24 -48 -34c-10 -7 -20 -13 -31 -19s-22 -13 -33 -19
c-15 -8 -29 -14 -44 -21c-8 -4 -15 -8 -22 -11c-3 -1 -5 -2 -7 -3c-12 -4 -23 -8 -34 -12c-16 -6 -31 -12 -47 -16c-2 -1 -5 -2 -8 -2c-47 -14 -96 -24 -146 -29c-26 -2 -52 -4 -78 -4c-30 0 -58 2 -87 5c-12 1 -23 4 -35 5c-16 3 -32 5 -48 8c-17 4 -34 9 -51 13
c-9 3 -18 5 -28 8c-22 8 -45 16 -67 26c-2 0 -3 0 -4 1c-1 0 -1 0 -2 1c-9 4 -20 7 -29 12c-111 52 -206 124 -284 219v2c-50 60 -91 128 -124 205c-44 102 -66 208 -66 320c0 56 6 110 17 163c-10 12 -17 27 -17 43v481c0 30 14 51 43 63c28 12 52 7 74 -15l140 -138
c3 2 6 5 9 7c16 15 31 28 48 41c4 4 9 7 13 10c15 12 31 23 48 34l30 18c11 7 22 14 34 20c14 7 29 14 44 21c7 3 14 7 22 11c2 1 5 1 7 2c11 5 23 9 34 13c15 6 31 11 46 16c3 1 6 1 8 2c48 14 97 24 146 28c26 3 52 4 79 4c29 0 58 -2 87 -5c11 -1 23 -3 35 -5
c16 -2 32 -4 48 -8c17 -3 34 -8 50 -13c10 -2 19 -5 28 -8c23 -7 46 -16 68 -25c1 -1 2 -1 4 -1c0 -1 1 -1 1 -1l30 -12c110 -52 206 -124 283 -219c1 -1 0 -1 1 -2c49 -61 91 -129 124 -205c44 -102 65 -209 65 -320zM2698 451h256c12 44 18 90 18 138
c0 129 -45 248 -121 342c-5 7 -11 13 -17 20c-65 74 -150 131 -246 162c-3 0 -6 1 -8 2c-15 4 -29 8 -44 11c-6 2 -13 3 -20 4c-12 2 -23 4 -35 5c-14 2 -29 2 -44 3h-14c-6 0 -12 0 -18 -1c-12 0 -24 0 -36 -1c-5 -1 -10 -2 -15 -2c-13 -2 -27 -4 -40 -7c-2 0 -4 -1 -5 -1
c-99 -21 -187 -69 -259 -136l146 -147c22 -22 27 -46 15 -74c-12 -29 -33 -43 -63 -43h-256c-12 -44 -19 -90 -19 -137c0 -129 46 -248 122 -343c5 -6 11 -13 16 -19c66 -74 150 -131 247 -162c2 -1 5 -2 8 -2c14 -5 29 -8 43 -12c7 -1 14 -2 20 -3c12 -2 24 -4 36 -5
c14 -2 28 -3 42 -3c5 0 11 -1 16 -1c6 0 12 1 18 1c12 1 24 1 36 2c5 0 9 1 14 2c14 2 28 4 41 6c2 1 3 1 5 2c98 21 187 69 259 135l-147 147c-22 23 -26 46 -15 74c12 29 34 43 64 43zM1709 -20c36 -43 77 -82 121 -118c-24 -12 -50 -19 -78 -19h-1580
c-47 0 -88 17 -122 50c-33 34 -50 74 -50 122v1167c0 48 17 88 50 122c34 33 75 50 122 50h1332c-11 -24 -19 -50 -19 -78v-59h-1313c-19 0 -35 -16 -35 -35c0 -120 53 -222 158 -304c139 -109 281 -223 431 -341c4 -3 17 -14 37 -32c20 -17 38 -30 50 -40
c11 -9 27 -21 47 -34c39 -26 72 -39 101 -39h1h1c29 0 61 13 100 39c20 14 36 25 48 34c12 10 29 23 49 40c21 18 34 29 38 32c99 79 195 155 289 229c2 -11 5 -22 9 -32c-7 -47 -11 -94 -11 -142c-89 -71 -167 -133 -230 -187c-37 -31 -67 -54 -89 -72
c-23 -17 -54 -34 -94 -52c-38 -18 -75 -26 -109 -26h-1h-1c-35 0 -71 8 -111 26c-39 17 -70 35 -92 52c-23 18 -53 41 -89 72c-113 95 -266 216 -458 363c-27 21 -51 45 -74 71v-824c0 -19 16 -35 35 -35h1537z" />
    <glyph glyph-name="letter_status_aval" unicode="&#xf024;" horiz-adv-x="4142" 
d="M1731 -85c58 -54 122 -101 192 -138c-17 -6 -35 -9 -54 -9h-1686c-50 0 -94 18 -129 54c-36 35 -54 79 -54 129v1246c0 51 18 94 54 130c35 35 79 54 129 54h1686c6 0 11 -1 17 -2c-68 -40 -130 -89 -186 -145h-1517c-19 0 -36 -17 -36 -37c0 -128 56 -237 168 -325
c148 -116 300 -237 459 -363c5 -4 18 -15 40 -34s40 -32 53 -43c13 -10 29 -22 50 -36c42 -29 77 -42 108 -42h1h1c31 0 66 14 107 42c22 14 39 26 51 36c13 11 32 24 53 43c22 19 36 30 40 34c55 43 107 84 160 126c-1 -15 -2 -30 -2 -46c0 -45 4 -89 10 -133
c-38 -31 -75 -61 -107 -88c-39 -33 -71 -58 -95 -77c-24 -18 -57 -37 -100 -56c-41 -18 -80 -27 -117 -27h-1h-1c-37 0 -76 8 -118 27c-41 19 -74 38 -98 56c-24 19 -56 44 -95 77c-120 101 -284 230 -488 387c-29 23 -55 48 -79 76v-880c0 -19 17 -36 36 -36h1548z
M3318 1413c455 0 824 -369 824 -824s-369 -825 -824 -825c-179 0 -345 59 -480 156c-136 -97 -301 -156 -481 -156c-455 0 -824 370 -824 825s369 824 824 824c180 0 345 -58 481 -155c135 97 301 155 480 155zM2684 791c23 31 23 82 0 112l-83 111c-22 31 -60 31 -83 0
l-400 -538l-179 242c-23 30 -60 30 -83 0l-83 -112c-22 -30 -22 -81 0 -111l221 -297l83 -111c22 -30 60 -31 83 0l83 111zM3825 321l-268 268l268 268c6 6 9 15 9 25c0 9 -3 17 -9 23l-147 147c-6 6 -14 9 -23 9c-10 0 -19 -3 -25 -9l-268 -268l-268 268c-7 6 -15 9 -25 9
s-17 -3 -24 -9l-146 -147c-6 -6 -10 -14 -10 -23c0 -10 4 -19 10 -25l268 -268l-268 -268c-6 -7 -10 -15 -10 -25s4 -17 10 -24l146 -146c7 -6 14 -10 24 -10s18 4 25 10l268 268l268 -268c6 -6 15 -10 25 -10c9 0 17 4 23 10l147 146c6 7 9 14 9 24s-3 18 -9 25z" />
    <glyph glyph-name="letter_status_aimp" unicode="&#xf025;" horiz-adv-x="3325" 
d="M1695 -88c38 -24 77 -42 118 -57c-7 -15 -17 -30 -30 -43c-32 -31 -71 -48 -116 -48h-1504c-44 0 -83 17 -115 48c-32 32 -48 71 -48 116v1111c0 45 16 84 48 116s71 48 115 48h1504c45 0 84 -16 116 -48c7 -7 12 -14 18 -22v0c-21 -8 -42 -17 -62 -28v0
c-21 -11 -40 -22 -60 -35v0c-3 1 -7 2 -12 2h-1504c-17 0 -32 -15 -32 -33c0 -114 50 -211 150 -290c132 -103 268 -211 410 -324c4 -3 16 -13 35 -30c20 -17 36 -29 47 -38c12 -9 27 -20 45 -33c38 -25 69 -36 96 -36h1h1c28 0 59 12 95 36c20 14 35 24 46 33
c12 9 28 21 47 38c20 17 32 27 36 30c81 64 159 126 237 188c-3 -19 -6 -38 -7 -57c-2 -19 -3 -39 -3 -59c0 -19 1 -37 2 -55c-66 -52 -125 -100 -175 -142c-35 -30 -63 -52 -84 -69c-22 -16 -51 -33 -89 -50c-37 -16 -72 -24 -105 -24h-1h-1c-32 0 -67 7 -105 24
c-37 17 -66 34 -88 50c-21 17 -50 39 -85 69c-107 90 -252 205 -435 345c-26 20 -49 43 -70 68v-785c0 -17 15 -33 32 -33h1504c12 0 23 8 28 17v0zM3267 701c38 -38 58 -84 58 -138v-425c0 -17 -16 -33 -33 -33h-229v-163c0 -54 -44 -98 -98 -98h-981c-54 0 -98 44 -98 98
v163h-229c-17 0 -32 16 -32 33v425c0 54 19 100 57 138c39 39 85 58 139 58h65v556c0 54 44 98 98 98h687c28 0 57 -7 90 -20c33 -14 58 -30 77 -49l156 -156c19 -19 36 -45 49 -77c13 -33 20 -63 20 -90v-262h66c54 0 99 -20 138 -58zM2933 -25v261h-916v-261h916z
M2933 628v393h-164c-54 0 -98 44 -98 98v163h-654v-654h916zM3175 517c25 26 25 67 0 92c-26 26 -67 26 -92 0c-26 -25 -26 -66 0 -92c25 -25 66 -25 92 0z" />
    <glyph glyph-name="letter_status_imp" unicode="&#xf026;" horiz-adv-x="3678" 
d="M1608 59c36 -23 73 -40 112 -54c-7 -14 -17 -28 -29 -41c-30 -30 -67 -45 -109 -45h-1427c-43 0 -79 15 -109 45s-46 67 -46 110v1054c0 43 16 80 46 110s66 45 109 45h1427c42 0 79 -15 109 -45c7 -7 12 -14 17 -21v0c-20 -8 -39 -17 -59 -26v-1
c-19 -10 -38 -21 -56 -33v0c-4 1 -7 2 -11 2h-1427c-16 0 -31 -14 -31 -31c0 -108 47 -200 142 -275c125 -98 254 -201 389 -307c4 -3 15 -13 34 -29c18 -16 34 -27 45 -36c10 -9 24 -19 42 -31c36 -24 65 -35 91 -35h1h1c26 0 56 12 90 35c19 12 33 22 44 31s26 20 45 36
c18 16 30 26 33 29c77 60 152 119 225 177c-3 -17 -5 -35 -7 -53c-1 -19 -2 -37 -2 -57c0 -17 1 -34 2 -51c-63 -50 -119 -96 -166 -135c-33 -28 -60 -50 -81 -65c-20 -16 -48 -31 -84 -48c-35 -15 -68 -23 -99 -23h-1h-1c-31 0 -64 7 -100 23c-35 16 -63 32 -83 48
c-20 15 -47 37 -80 65c-102 85 -240 194 -413 327c-25 19 -47 41 -67 64v-744c0 -17 15 -31 31 -31h1427c11 0 21 7 26 16v0zM3663 584c21 28 20 74 0 102l-76 102c-21 27 -55 27 -76 0l-502 -648l-163 220c-21 28 -55 28 -76 0l-75 -101c-21 -28 -21 -74 0 -102l201 -270
l75 -102c21 -27 55 -27 76 0l76 102zM2570 49l92 -124h-780c-51 0 -93 41 -93 93v155h-217c-16 0 -31 14 -31 31v403c0 51 19 95 54 131c37 37 81 55 132 55h62v527c0 51 42 93 93 93h651c27 0 55 -7 86 -19c31 -13 55 -28 73 -47l148 -147c18 -19 34 -43 46 -74
c13 -31 20 -59 20 -85v-248h62c51 0 94 -19 130 -55s55 -78 55 -128l-144 -194l-31 42c-41 56 -103 88 -170 88s-129 -32 -170 -87l-75 -102c-14 -19 -24 -39 -32 -60h-618v-248h657zM2924 650c-24 -24 -24 -63 0 -87s63 -24 87 0s24 63 0 87c-24 25 -63 25 -87 0z
M1913 1289v-620h869v372h-155c-52 0 -94 42 -94 93v155h-620z" />
    <glyph glyph-name="letter_status_aenv" unicode="&#xf027;" horiz-adv-x="2919" 
d="M1948 36c48 -27 98 -46 150 -60v-24c0 -52 -19 -96 -55 -133c-36 -36 -81 -55 -132 -55h-1724c-51 0 -96 19 -132 55c-36 37 -55 81 -55 133v1274c0 51 19 96 55 132s81 55 132 55h1724c51 0 96 -19 132 -55c35 -35 54 -78 55 -128c-53 -13 -103 -33 -151 -60
c0 4 1 8 1 12c0 11 0 31 -1 44c0 21 -12 37 -36 37h-1724c-20 0 -37 -17 -37 -37c0 -131 57 -243 172 -333c151 -118 307 -242 470 -371c4 -4 18 -16 41 -35c21 -19 40 -33 53 -43c13 -11 30 -23 52 -38c43 -29 78 -42 110 -42h1h1c32 0 67 14 109 42c23 15 40 27 53 38
c13 10 32 24 54 43s36 31 41 35c115 91 225 178 334 264c-17 -57 -25 -118 -25 -182c0 -9 0 -17 1 -25c-96 -76 -180 -143 -248 -201c-40 -34 -73 -60 -97 -78c-25 -19 -59 -38 -102 -58c-42 -19 -82 -28 -120 -28h-1h-1c-38 0 -78 9 -121 28c-42 19 -76 39 -100 58
c-25 18 -58 44 -98 78c-122 103 -289 235 -498 396c-30 23 -57 49 -81 77v-899c0 -20 17 -38 37 -38h1724c20 0 37 18 37 38v84zM2728 1061c127 -127 191 -280 191 -457c0 -178 -64 -331 -191 -459c-125 -125 -279 -189 -457 -189c-177 0 -331 63 -458 189
c-126 127 -189 281 -189 459c0 177 63 331 189 457c127 127 281 190 458 190c178 0 331 -64 457 -190zM2736 573c17 17 17 44 0 61l-501 501c-17 17 -44 17 -61 0l-112 -112c-17 -17 -17 -44 0 -61l359 -358l-359 -359c-17 -17 -17 -44 0 -61l112 -112c17 -17 44 -17 61 0z
" />
    <glyph glyph-name="letter_status_acla" unicode="&#xf028;" horiz-adv-x="3158" 
d="M1826 174h1332v-410h-1332v410zM2736 -139v217h-457v-217h118v99h221v-99h118zM1826 686h1332v-409h-1332v409zM2736 373v217h-457v-217h118v99h221v-99h118zM2882 1411l276 -212v-410h-1332v410l275 212h781zM2736 885v217h-457v-217h118v99h221v-99h118zM1727 -85v-150
h-1540c-51 0 -96 19 -132 55s-55 81 -55 132v1274c0 51 19 96 55 132s81 55 132 55h1723c10 0 19 -1 28 -3l-173 -133c-5 -4 -10 -9 -14 -14h-1564c-20 0 -37 -17 -37 -37c0 -131 57 -243 172 -333c151 -118 306 -242 469 -371c5 -3 19 -15 41 -35c22 -19 41 -33 54 -43
c13 -11 30 -23 52 -37c42 -29 78 -43 110 -43h1h1c32 0 67 14 109 43c22 15 40 26 52 37c13 10 32 24 54 43c23 20 37 32 41 35c146 115 285 226 421 333v-66c0 -19 7 -36 16 -51c-9 -16 -16 -32 -16 -52v-20c-145 -113 -265 -209 -359 -288c-40 -33 -72 -59 -97 -78
c-24 -19 -58 -38 -102 -57c-42 -19 -82 -28 -119 -28h-1h-1c-38 0 -78 8 -121 28c-42 19 -76 38 -101 57c-24 19 -57 45 -97 78c-123 104 -289 235 -498 396c-30 23 -57 49 -81 77v-899c0 -20 17 -37 37 -37h1540z" />
    <glyph glyph-name="letter_status_aarch" unicode="&#xf029;" horiz-adv-x="3293" 
d="M2567 438c76 0 137 61 137 137s-61 137 -137 137s-137 -61 -137 -137s61 -137 137 -137zM2080 976c14 0 25 -11 25 -25v-122c0 -13 -11 -25 -25 -25h-193v-39c0 -14 -11 -25 -25 -25h-98c-14 0 -25 11 -25 25v250c0 14 11 25 25 25h98c14 0 25 -11 25 -25v-39h193z
M2080 352c14 0 25 -11 25 -25v-122c0 -14 -11 -25 -25 -25h-193v-39c0 -14 -11 -25 -25 -25h-98c-14 0 -25 11 -25 25v250c0 14 11 25 25 25h98c14 0 25 -11 25 -25v-39h193zM2587 804v130h-40v-130h40zM2587 216v130h-40v-130h40zM2416 749l32 23l-76 105l-32 -23z
M2762 273l32 23l-76 105l-32 -23zM2343 627l12 38l-123 40l-12 -38zM2902 446l12 37l-123 40l-12 -37zM2232 446l123 40l-12 37l-123 -40zM2791 627l123 40l-12 38l-123 -40zM2372 273l76 105l-32 23l-76 -105zM2718 749l76 105l-32 23l-76 -105zM2567 1063
c270 0 488 -218 488 -488c0 -269 -218 -488 -488 -488s-488 219 -488 488c0 270 218 488 488 488zM2567 203c206 0 372 167 372 372c0 206 -166 372 -372 372s-372 -166 -372 -372c0 -205 166 -372 372 -372zM3218 1413c42 0 75 -34 75 -75v-1498c0 -42 -33 -76 -75 -76
h-1516c-42 0 -76 34 -76 76v1498c0 41 34 75 76 75h1516zM3118 21v1139c0 41 -33 75 -75 75h-1157c-41 0 -75 -34 -75 -75v-75h-47c-39 0 -70 -31 -70 -70v-250c0 -38 31 -70 70 -70h47v-234h-47c-39 0 -70 -32 -70 -70v-250c0 -38 31 -70 70 -70h47v-50
c0 -41 34 -75 75 -75h1157c42 0 75 34 75 75zM1533 -160c0 -15 3 -28 6 -42h-1363c-48 0 -90 18 -124 52s-52 76 -52 124v1198c0 48 18 90 52 124s76 52 124 52h1358c0 -4 -1 -7 -1 -10v-131h-1357c-19 0 -35 -17 -35 -35c0 -124 54 -228 162 -313
c142 -111 288 -228 441 -349c4 -3 17 -14 39 -33c20 -18 38 -31 50 -41c12 -9 28 -21 49 -35c40 -27 73 -39 103 -39h1h1c30 0 63 13 103 39c21 14 37 26 49 35c12 10 30 23 51 41c21 19 34 30 38 33c105 83 206 163 305 241v-177c-95 -75 -179 -142 -246 -199
c-38 -32 -69 -56 -92 -74c-23 -17 -55 -35 -95 -54c-40 -18 -78 -26 -113 -26h-1h-1c-35 0 -73 8 -113 26s-72 37 -95 54c-23 18 -54 42 -91 74c-116 97 -273 221 -469 372c-28 21 -53 46 -76 73v-846c0 -18 16 -35 35 -35h1357v-99z" />
    <glyph glyph-name="doc" unicode="&#xf02a;" horiz-adv-x="1413" 
d="M1395 994c12 -30 18 -57 18 -81v-1060c0 -49 -39 -89 -88 -89h-1237c-48 0 -88 40 -88 89v1472c0 49 40 88 88 88h825c25 0 51 -6 81 -18c29 -12 52 -27 70 -44l287 -287c17 -18 32 -41 44 -70zM942 1288v-346h346c-6 18 -13 30 -20 38l-288 288c-8 7 -20 14 -38 20z
M1295 -118v942h-382c-49 0 -89 40 -89 89v382h-706v-1413h1177z" />
    <glyph glyph-name="doc_add" unicode="&#xf02b;" horiz-adv-x="2151" 
d="M2001 721c99 -99 150 -219 150 -359c0 -139 -50 -260 -150 -360c-99 -99 -220 -149 -359 -149c-140 0 -261 50 -360 149c-100 100 -149 221 -149 360c0 140 50 261 149 359c99 100 220 150 360 150c139 0 259 -50 359 -150zM1969 290c19 0 36 17 36 36v73
c0 19 -17 36 -36 36h-255v255c0 19 -17 36 -36 36h-73c-19 0 -36 -17 -36 -36v-255h-255c-19 0 -36 -17 -36 -36v-73c0 -19 17 -36 36 -36h255v-255c0 -19 17 -36 36 -36h73c19 0 36 17 36 36v255h255zM1295 -10c37 -35 76 -62 118 -84v-53c0 -49 -39 -89 -88 -89h-1237
c-48 0 -88 40 -88 89v1472c0 49 40 88 88 88h825c25 0 51 -6 81 -18c29 -12 52 -27 70 -44l287 -287c17 -18 32 -41 44 -70c12 -30 18 -57 18 -81v-95c-42 -22 -81 -50 -118 -84v90h-382c-49 0 -89 40 -89 89v382h-706v-1413h1177v108zM942 1288v-346h346
c-6 18 -13 30 -20 38l-288 288c-8 7 -20 14 -38 20z" />
    <glyph glyph-name="doc_search" unicode="&#xf02c;" horiz-adv-x="2151" 
d="M1830 269c37 37 55 82 55 134s-18 97 -55 134s-82 56 -134 56s-97 -19 -134 -56s-56 -82 -56 -134s19 -97 56 -134s82 -55 134 -55s97 18 134 55zM2001 708c99 -99 150 -219 150 -359s-50 -260 -150 -360c-99 -99 -220 -149 -359 -149c-140 0 -261 50 -360 149
c-100 99 -149 220 -149 360s50 260 149 359c99 100 220 150 360 150c139 0 259 -51 359 -150zM1970 287c16 37 24 76 24 116s-8 79 -24 116c-15 36 -37 68 -63 95c-27 26 -59 48 -95 63c-37 16 -76 24 -116 24s-79 -8 -116 -24c-37 -15 -68 -37 -95 -63
c-27 -27 -48 -59 -63 -95c-16 -37 -24 -76 -24 -116c0 -62 17 -118 52 -169l-145 -145c-10 -10 -15 -23 -15 -38s5 -27 16 -38c10 -10 23 -16 38 -16s28 6 38 16l145 145c50 -35 107 -53 169 -53c40 0 79 8 116 24c73 31 127 85 158 158zM1295 -24c37 -34 76 -62 118 -83
v-40c0 -49 -39 -89 -88 -89h-1237c-48 0 -88 40 -88 89v1472c0 49 40 88 88 88h825c25 0 51 -6 81 -18c29 -12 52 -27 70 -44l287 -287c17 -18 32 -41 44 -70c12 -30 18 -57 18 -81v-109c-42 -21 -81 -49 -118 -83v103h-382c-49 0 -89 40 -89 89v382h-706v-1413h1177v94z
M942 1288v-346h346c-6 18 -13 30 -20 38l-288 288c-8 7 -20 14 -38 20z" />
    <glyph glyph-name="doc_del" unicode="&#xf02d;" horiz-adv-x="2151" 
d="M2001 699c99 -99 150 -219 150 -359c0 -139 -50 -260 -150 -360c-99 -99 -220 -149 -359 -149c-140 0 -261 50 -360 149c-100 100 -149 221 -149 360c0 140 50 260 149 359c99 100 220 150 360 150c139 0 259 -50 359 -150zM1993 292v96c0 27 -22 48 -48 48h-607
c-26 0 -47 -21 -47 -48v-96c0 -26 21 -48 47 -48h607c26 0 48 22 48 48zM1295 -32c37 -35 76 -63 118 -84v-31c0 -49 -39 -89 -88 -89h-1237c-48 0 -88 40 -88 89v1472c0 49 40 88 88 88h825c25 0 51 -6 81 -18c29 -12 52 -27 70 -44l287 -287c17 -18 32 -41 44 -70
c12 -30 18 -57 18 -81v-117c-42 -22 -81 -50 -118 -84v112h-382c-49 0 -89 40 -89 89v382h-706v-1413h1177v86zM942 1288v-346h346c-6 18 -13 30 -20 38l-288 288c-8 7 -20 14 -38 20z" />
    <glyph glyph-name="archive" unicode="&#xf02e;" horiz-adv-x="1786" 
d="M1786 1344v-274c0 -38 -31 -69 -69 -69h-1648c-38 0 -69 31 -69 69v274c0 38 31 69 69 69h1648c38 0 69 -31 69 -69zM1649 932c37 0 68 -31 68 -68v-1031c0 -37 -31 -69 -68 -69h-1512c-37 0 -68 32 -68 69v1031c0 37 31 68 68 68h1512zM1030 589c38 0 69 31 69 68
c0 38 -31 69 -69 69h-274c-38 0 -69 -31 -69 -69c0 -37 31 -68 69 -68h274z" />
    <glyph glyph-name="archive_add" unicode="&#xf02f;" horiz-adv-x="2855" 
d="M2644 1057c139 -140 211 -308 211 -505s-71 -366 -211 -507c-140 -139 -309 -210 -506 -210s-367 70 -507 210s-209 310 -209 507s70 366 209 505c141 141 310 211 507 211s366 -71 506 -211zM2599 450c27 0 51 24 51 51v102c0 27 -24 51 -51 51h-359v359
c0 27 -24 51 -51 51h-102c-27 0 -51 -24 -51 -51v-359h-358c-28 0 -52 -24 -52 -51v-102c0 -27 24 -51 52 -51h358v-359c0 -27 24 -51 51 -51h102c27 0 51 24 51 51v359h359zM1535 1154c-48 -48 -88 -99 -122 -153h-1344c-38 0 -69 31 -69 69v274c0 38 31 69 69 69h1648
c38 0 69 -31 69 -69v-14c-91 -42 -175 -100 -251 -176zM1535 -51c55 -55 115 -101 178 -138c-9 -27 -35 -47 -64 -47h-1512c-37 0 -68 32 -68 69v1031c0 37 31 68 68 68h1237c-59 -115 -89 -242 -89 -380c0 -235 84 -438 250 -603zM1030 589c38 0 69 31 69 68
c0 38 -31 69 -69 69h-274c-38 0 -69 -31 -69 -69c0 -37 31 -68 69 -68h274z" />
    <glyph glyph-name="archive_search" unicode="&#xf030;" horiz-adv-x="2984" 
d="M2508 449c47 47 70 104 70 171c0 66 -23 123 -70 170c-48 47 -105 71 -171 71s-123 -24 -170 -71c-48 -47 -72 -104 -72 -170c0 -67 24 -124 72 -171c46 -47 104 -71 170 -71s123 24 171 71zM2773 1056c140 -140 211 -309 211 -505c0 -197 -70 -366 -211 -507
c-139 -139 -308 -210 -505 -210s-367 70 -507 210s-210 310 -210 507c0 196 71 366 210 505c141 141 310 211 507 211s365 -71 505 -211zM2687 472c20 47 29 96 29 148c0 51 -10 100 -29 147c-20 47 -47 87 -81 121s-75 61 -122 81c-46 20 -96 30 -147 30s-100 -10 -147 -30
s-88 -47 -122 -81c-33 -34 -60 -74 -80 -121s-31 -96 -31 -147c0 -80 23 -151 67 -215l-185 -185c-13 -14 -19 -30 -19 -49s7 -35 20 -48c13 -14 30 -21 48 -21c20 0 36 8 49 21l185 184c64 -45 136 -67 215 -67c51 0 101 10 147 30c94 40 162 109 203 202zM1665 -53
c17 -17 34 -32 52 -48v-66c0 -37 -31 -69 -68 -69h-1512c-37 0 -68 32 -68 69v1031c0 37 31 68 68 68h1367c-59 -115 -89 -243 -89 -381c0 -235 84 -438 250 -604zM1030 589c38 0 69 31 69 68c0 38 -31 69 -69 69h-274c-38 0 -69 -31 -69 -69c0 -37 31 -68 69 -68h274z
M1665 1152c-48 -47 -88 -98 -122 -151h-1474c-38 0 -69 31 -69 69v274c0 38 31 69 69 69h1648c38 0 69 -31 69 -69v-90c-42 -29 -83 -63 -121 -102z" />
    <glyph glyph-name="archive_del" unicode="&#xf031;" horiz-adv-x="2968" 
d="M2757 1017c140 -140 211 -309 211 -506c0 -196 -70 -366 -211 -507c-139 -139 -308 -209 -505 -209s-367 70 -507 209c-140 140 -209 311 -209 507c0 197 70 367 209 506c141 140 310 211 507 211s365 -71 505 -211zM2707 275l-236 236l236 237c29 29 29 79 0 109
l-110 109c-29 30 -79 30 -109 0l-236 -236l-236 236c-30 30 -80 30 -110 0l-109 -109c-30 -30 -30 -80 0 -109l236 -237l-236 -236c-30 -30 -30 -80 0 -109l109 -110c30 -29 80 -29 110 0l236 237l236 -237c30 -29 80 -29 109 0l110 110c29 29 29 79 0 109zM1649 1113
c-36 -36 -67 -73 -95 -112h-1485c-38 0 -69 31 -69 69v274c0 38 31 69 69 69h1648c38 0 69 -31 69 -69v-118c-48 -32 -94 -70 -137 -113zM1649 -92c22 -22 45 -43 68 -62v-13c0 -37 -31 -69 -68 -69h-1512c-37 0 -68 32 -68 69v1031c0 37 31 68 68 68h1373
c-73 -125 -111 -266 -111 -421c0 -235 84 -438 250 -603zM1030 589c38 0 69 31 69 68c0 38 -31 69 -69 69h-274c-38 0 -69 -31 -69 -69c0 -37 31 -68 69 -68h274z" />
    <glyph glyph-name="file_format" unicode="&#xf032;" horiz-adv-x="2004" 
d="M501 1413v-304c0 -30 24 -54 54 -54h304v-590c0 -30 -24 -54 -54 -54h-751c-30 0 -54 24 -54 54v894c0 30 24 54 54 54h447zM837 1127h-264v264c8 -5 15 -11 20 -16l228 -228c5 -5 11 -12 16 -20zM1074 1090v-304c0 -30 24 -54 53 -54h304v-591c0 -29 -24 -53 -53 -53
h-752c-30 0 -54 24 -54 53v895c0 30 24 54 54 54h448zM1409 804h-264v264c9 -5 15 -11 20 -16l228 -228c5 -5 11 -12 16 -20zM1646 767v-305c0 -29 24 -53 54 -53h304v-591c0 -29 -24 -54 -54 -54h-751c-30 0 -54 25 -54 54v895c0 30 24 54 54 54h447zM1982 480h-264v264
c8 -5 15 -10 20 -15l228 -229c5 -5 10 -11 16 -20zM271 1012c-20 -22 -30 -46 -30 -73c0 -30 9 -54 28 -71c18 -17 46 -29 85 -36v-145c-30 2 -51 13 -62 33c-6 12 -10 29 -11 54h-48c0 -31 6 -55 16 -73c18 -33 53 -52 105 -55v-52h25v52c32 4 57 11 74 22
c31 20 46 53 46 101c0 32 -12 57 -36 74c-15 10 -43 21 -84 32v130c25 -1 43 -10 54 -28c6 -10 9 -22 11 -35h46c-1 30 -10 54 -29 72c-19 19 -46 29 -82 32v35h-25v-36c-36 0 -64 -11 -83 -33zM307 901c-12 10 -18 24 -18 41c0 15 5 29 15 42s26 21 50 21v-125
c-20 4 -36 11 -47 21zM442 719c-11 -21 -32 -32 -63 -34v140c22 -6 38 -12 48 -19c16 -11 24 -28 24 -50c0 -14 -3 -27 -9 -37zM960 719h-57v-109l-104 38l-19 -54l106 -34l-66 -92l49 -34l64 95l63 -95l48 34l-65 92l105 34l-19 53l-105 -36v108zM1573 56h1
c77 0 136 60 136 136c0 75 -61 136 -136 136s-137 -61 -136 -137c1 -77 61 -135 135 -135z" />
    <glyph glyph-name="file_fingerprint" unicode="&#xf033;" horiz-adv-x="1204" 
d="M938 1140c-62 30 -154 42 -201 39c-430 -31 -626 -348 -678 -731c-25 78 -27 98 -41 159c18 137 149 400 312 503c164 104 307 155 505 135c24 -10 73 -68 103 -105zM1099 662c37 -28 -138 106 0 0c34 -26 65 -54 93 -86c7 -42 11 -85 12 -128
c-111 142 -251 273 -446 253c-173 -18 -338 -127 -396 -294c-58 -164 -23 -358 109 -474c166 -146 436 -185 603 -22c-117 -163 -320 -179 -494 -102c-90 39 -170 99 -239 168c-56 85 -77 187 -75 287c10 416 504 650 833 398zM983 585c92 -49 -93 48 0 0
c70 -38 166 -131 220 -230c-1 -41 0 -76 -18 -168c-20 250 -331 480 -565 338c-193 -118 -164 -464 28 -569c87 -48 210 -63 291 3c110 90 79 244 5 347c-57 80 -226 154 -268 18c-36 -116 20 -266 151 -280c145 -16 53 172 15 227c-94 77 -97 -26 -45 -82
c25 -18 53 -7 71 -31c28 -37 0 -53 -30 -52c-95 5 -163 100 -140 193c26 111 165 67 210 -2c47 -73 106 -190 45 -271c-73 -96 -224 -45 -292 30c-55 61 -70 169 -60 247c15 125 135 193 254 156c105 -33 175 -136 207 -237c73 -228 -107 -414 -336 -367
c-231 47 -340 287 -296 507c52 254 340 335 553 223zM98 1080c119 180 325 289 477 317c48 -13 94 -33 138 -59c-178 9 -354 -75 -477 -200c-128 -130 -202 -304 -225 -483c-23 166 -13 348 63 502c71 145 204 251 369 256c-164 -49 -279 -179 -345 -333zM1118 834
c20 -47 38 -96 51 -145c-169 210 -453 212 -675 82c-200 -117 -306 -336 -330 -560c-16 27 -33 56 -44 85c-27 51 -36 75 -41 99c24 153 95 361 184 464c140 160 255 243 535 255c63 3 125 -10 185 -33c26 -37 50 -76 72 -116c-194 133 -479 93 -653 -58
c-115 -100 -184 -240 -224 -387c19 40 42 79 67 115c88 123 117 173 355 259c116 42 245 53 365 17c55 -16 107 -42 153 -77z" />
    <glyph glyph-name="folder_type" unicode="&#xf034;" horiz-adv-x="2056" 
d="M886 556v-438h-265c-41 0 -76 15 -105 44c-30 30 -45 65 -45 106v642c0 41 15 76 45 105c29 30 64 45 105 45h214c41 0 76 -15 106 -45c29 -29 44 -64 44 -105v-22h449c41 0 77 -14 106 -44c29 -29 44 -65 44 -105v-148h-74c-7 42 -27 80 -58 111c-39 40 -90 61 -145 61
h-214c-56 0 -106 -21 -146 -61s-61 -90 -61 -146zM415 910v-438h-265c-41 0 -76 14 -106 44c-29 29 -44 65 -44 105v642c0 41 15 77 44 106c30 29 65 44 106 44h214c41 0 76 -15 105 -44c30 -29 45 -65 45 -106v-21h449c41 0 76 -15 105 -44c30 -30 45 -65 45 -106v-147h-74
c-7 42 -27 79 -58 110c-40 40 -90 61 -146 61h-214c-55 0 -106 -21 -145 -61c-40 -39 -61 -90 -61 -145zM98 1077c-24 -26 -35 -55 -35 -87c0 -37 11 -65 33 -85c22 -21 56 -35 102 -44v-173c-36 2 -61 16 -74 40c-8 13 -12 35 -14 64h-56c0 -37 6 -66 18 -87
c22 -40 64 -62 126 -66v-62h30v62c38 4 68 13 88 26c37 24 55 64 55 121c0 39 -14 68 -43 88c-17 12 -51 25 -100 39v155c29 -1 51 -12 64 -34c7 -11 12 -25 13 -41h56c-1 36 -13 65 -36 87c-22 22 -55 34 -97 37v42h-30v-43c-43 0 -76 -13 -100 -39zM141 944
c-14 12 -21 28 -21 49c0 18 6 34 18 50s32 25 60 26v-150c-24 5 -43 13 -57 25zM303 726c-14 -25 -39 -38 -75 -40v167c26 -7 45 -14 57 -22c19 -14 29 -34 29 -61c0 -17 -4 -31 -11 -44zM717 685h-67v-130l-125 45l-23 -64l127 -41l-79 -109l59 -41l76 113l76 -113l57 41
l-78 109l126 41l-23 64l-126 -44v129zM2056 385v-471c0 -41 -15 -76 -45 -105c-29 -30 -64 -45 -105 -45h-813c-41 0 -77 15 -106 45c-29 29 -44 64 -44 105v642c0 41 15 76 44 106c29 29 65 44 106 44h214c40 0 76 -15 105 -44c30 -30 44 -65 44 -106v-21h450
c41 0 76 -15 105 -44c30 -30 45 -65 45 -106zM1484 -32h1c92 0 163 71 163 163c0 90 -73 163 -163 163c-89 0 -163 -73 -162 -165c0 -91 73 -161 161 -161z" />
    <glyph glyph-name="folder_add" unicode="&#xf035;" horiz-adv-x="3107" 
d="M2889 1030c145 -145 218 -320 218 -523c0 -204 -72 -380 -218 -525c-144 -145 -320 -218 -524 -218c-203 0 -380 73 -525 218c-145 144 -217 321 -217 525c0 203 73 379 217 523c146 146 322 218 525 218c204 0 379 -73 524 -218zM2842 401c29 0 53 24 53 52v106
c0 29 -24 54 -53 54h-371v371c0 28 -24 53 -53 53h-106c-28 0 -53 -25 -53 -53v-371h-371c-28 0 -53 -25 -53 -54v-106c0 -28 25 -52 53 -52h371v-371c0 -29 25 -54 53 -54h106c29 0 53 25 53 54v371h371zM1553 507c0 -223 79 -415 235 -572c-4 -5 -7 -9 -12 -14
c-48 -49 -107 -73 -175 -73h-1352c-68 0 -127 24 -176 73s-73 108 -73 176v1067c0 68 24 127 73 176s108 73 176 73h356c68 0 126 -24 175 -73s74 -108 74 -176v-36h747c65 0 123 -23 171 -69c-145 -154 -219 -339 -219 -552z" />
    <glyph glyph-name="folder_search" unicode="&#xf036;" horiz-adv-x="3215" 
d="M2716 408c49 49 74 109 74 179c0 69 -25 129 -74 178c-50 49 -110 74 -179 74s-129 -25 -178 -74c-50 -50 -75 -109 -75 -178c0 -70 25 -130 75 -179c49 -49 109 -74 178 -74s130 24 179 74zM2994 1043c146 -146 221 -323 221 -529c0 -205 -74 -383 -221 -530
c-146 -146 -323 -220 -529 -220s-384 73 -531 220c-146 146 -219 325 -219 530c0 206 74 384 219 529c148 148 325 221 531 221s382 -74 529 -221zM2903 432c21 49 31 101 31 155c0 53 -10 104 -31 154c-21 49 -49 91 -84 126c-36 36 -78 64 -127 85s-101 32 -155 32
s-105 -11 -154 -32s-91 -49 -127 -85c-35 -35 -64 -77 -84 -126c-21 -50 -32 -101 -32 -154c0 -83 23 -158 70 -225l-194 -194c-14 -14 -20 -31 -20 -51c0 -19 7 -36 21 -50c14 -15 31 -22 51 -22s37 8 51 22l193 192c67 -46 142 -70 225 -70c54 0 106 10 155 32
c97 42 169 113 211 211zM1644 514c0 -206 68 -387 201 -538c-12 -25 -28 -49 -50 -71c-49 -49 -109 -74 -177 -74h-1366c-69 0 -128 25 -178 74c-49 50 -74 109 -74 178v1078c0 69 25 129 74 178c50 49 109 74 178 74h359c69 0 128 -25 178 -74c49 -49 74 -109 74 -178v-36
h755c68 0 128 -24 177 -74c10 -9 17 -19 25 -29c-117 -145 -176 -315 -176 -508z" />
    <glyph glyph-name="folder_view" unicode="&#xf037;" horiz-adv-x="3582" 
d="M3560 506c29 -48 29 -94 0 -141c-93 -157 -223 -282 -384 -376c-160 -94 -330 -141 -509 -141c-178 0 -348 47 -509 142c-161 94 -290 218 -384 375c-28 47 -28 93 0 141c94 156 223 280 384 375s331 141 509 141c179 0 349 -47 509 -141c161 -95 291 -219 384 -375z
M2448 784c-60 -60 -91 -134 -91 -218c0 -28 22 -49 49 -49c28 0 49 21 49 49c0 58 21 108 62 150c42 41 92 62 150 62c28 0 49 21 49 49c0 27 -21 49 -49 49c-84 0 -158 -31 -219 -92zM3110 102c136 83 250 194 340 333c-103 160 -232 281 -388 360c42 -70 62 -147 62 -229
c0 -126 -45 -234 -134 -323s-197 -134 -323 -134c-125 0 -234 44 -323 134c-89 89 -133 197 -133 323c0 82 20 159 62 229c-156 -79 -286 -200 -389 -360c91 -139 204 -251 340 -333c136 -83 284 -124 443 -124s307 42 443 124zM1710 327c63 -105 144 -197 238 -277v-23
c0 -72 -25 -134 -77 -185c-51 -52 -113 -78 -185 -78h-1424c-71 0 -133 26 -185 78c-51 51 -77 113 -77 185v1124c0 71 26 133 77 185c52 51 114 77 185 77h375c71 0 133 -26 185 -77c51 -52 77 -114 77 -185v-38h787c71 0 134 -25 185 -77c52 -51 77 -113 77 -185v-31
c-94 -80 -175 -171 -238 -276c-42 -71 -42 -146 0 -217z" />
    <glyph glyph-name="life_cycle_policy" unicode="&#xf038;" horiz-adv-x="2557" 
d="M1850 -106c-106 0 -206 23 -301 67c-94 45 -177 106 -243 188c-9 11 -8 29 2 40l126 126c6 6 14 9 23 9c10 -1 16 -5 21 -11c89 -117 226 -183 372 -183c258 0 471 212 471 471c0 258 -213 471 -471 471c-121 0 -235 -45 -320 -126l126 -127c19 -19 23 -40 13 -64
c-11 -24 -29 -37 -55 -37h-412c-32 0 -59 27 -59 59v413c0 25 12 44 37 54c24 10 45 6 64 -13l119 -119c132 124 307 195 487 195c96 0 187 -18 274 -56c88 -38 162 -87 225 -151c64 -63 114 -138 151 -225c38 -88 57 -179 57 -274c0 -96 -19 -187 -57 -274
c-37 -88 -87 -162 -151 -226c-63 -63 -137 -113 -225 -151c-87 -37 -178 -56 -274 -56zM1413 393c-15 -6 -26 -15 -34 -23l-84 -84v355h118v-248zM1144 317c9 -65 12 -119 12 -178c0 -68 -16 -121 -47 -160s-72 -58 -124 -58h-557c-52 0 -93 19 -124 58s-47 92 -47 160
c0 29 1 59 2 86c3 58 13 128 27 184c28 117 86 212 192 212c8 0 39 -29 74 -59c18 -15 41 -28 69 -40c29 -12 57 -18 86 -18c28 0 56 6 84 18c29 12 52 26 69 40c36 30 67 59 75 59c80 0 132 -53 165 -130c23 -53 35 -107 44 -174zM707 -74l121 139l-121 433l-122 -433z
M853 996c43 0 77 -35 77 -77s-34 -77 -77 -77c-42 0 -76 35 -76 77s34 77 76 77zM491 997c-25 17 -55 22 -84 17c15 38 39 73 70 105c64 63 140 95 230 95c89 0 165 -32 228 -95c31 -32 55 -66 71 -104c-26 4 -54 -1 -77 -14c-20 18 -47 30 -76 30c-32 0 -61 -14 -81 -36
c-36 24 -84 24 -121 1c-21 21 -49 35 -81 35c-31 0 -59 -13 -79 -34zM494 919c0 42 34 77 76 77c43 0 77 -35 77 -77s-34 -77 -77 -77c-42 0 -76 35 -76 77zM950 973c21 11 46 13 68 4c7 -28 12 -56 12 -86c0 -89 -32 -166 -95 -229s-139 -95 -228 -95
c-90 0 -166 32 -230 95c-63 63 -94 140 -94 229c0 30 5 58 12 85c25 10 54 8 76 -7c-8 -15 -12 -32 -12 -50c0 -62 50 -112 111 -112c62 0 112 50 112 112c0 18 -4 34 -12 49c26 15 58 15 82 -2c-6 -14 -11 -30 -11 -47c0 -62 51 -112 112 -112c62 0 112 50 112 112
c0 20 -6 38 -15 54zM1299 1286c-2 1 -3 2 -4 3v6h-8c-30 25 -61 32 -83 32c-18 0 -36 -4 -54 -11c-13 -6 -24 -13 -35 -21h-526v-35c-43 -14 -82 -36 -118 -65v93c-17 -6 -30 -13 -38 -20l-288 -288c-7 -8 -13 -20 -20 -38h189l-2 -4l20 3c-2 -13 -3 -26 -3 -39
c0 -27 4 -53 9 -78h-220v-942h1177v164c36 -36 75 -68 118 -96v-97c0 -49 -39 -89 -88 -89h-1237c-48 0 -88 40 -88 89v1060c0 24 6 51 18 81c12 29 27 52 45 70l287 287c17 17 40 32 70 44c29 12 56 18 80 18h825c49 0 88 -39 88 -88v-74c-16 -10 -31 -21 -46 -33z" />
    <glyph glyph-name="life_cycle" unicode="&#xf039;" horiz-adv-x="2355" 
d="M1491 241h117v395h-117v-395zM1119 241h117v395h-117v-395zM747 241h117v395h-117v-395zM351 438c0 -96 -79 -175 -176 -175c-96 0 -175 79 -175 175c0 97 79 176 175 176c97 0 176 -79 176 -176zM2355 438c0 -96 -78 -175 -175 -175s-175 79 -175 175
c0 97 78 176 175 176s175 -79 175 -176zM923 380v117h138v-117h-138zM1433 497v-117h-138v117h138zM1667 497h545v-117h-545v117zM689 497v-117h-545v117h545zM589 824v-269h-118v358c0 24 7 51 19 81c11 29 26 52 44 70l287 287c17 17 40 32 70 44c29 12 56 18 81 18h824
c49 0 88 -39 88 -88v-770h-117v740h-707v-382c0 -49 -40 -89 -88 -89h-383zM616 980c-7 -8 -13 -20 -20 -38h346v346c-17 -6 -30 -13 -38 -20zM1767 322h117v-469c0 -49 -39 -89 -88 -89h-1237c-48 0 -88 40 -88 89v469h118v-440h1178v440z" />
    <glyph glyph-name="life_cycle_step" unicode="&#xf03a;" horiz-adv-x="2355" 
d="M351 438c0 -96 -79 -175 -176 -175c-96 0 -175 79 -175 175c0 97 79 176 175 176c97 0 176 -79 176 -176zM2355 438c0 -96 -78 -175 -175 -175s-175 79 -175 175c0 97 78 176 175 176s175 -79 175 -176zM1119 241h117v395h-117v-395zM769 297h73v283h-73v-283zM1513 297
h74v283h-74v-283zM711 497v-117h-567v117h567zM1061 497v-117h-160v117h160zM1455 497v-117h-160v117h160zM1645 497h567v-117h-567v117zM1767 -118v440h117v-469c0 -49 -39 -89 -88 -89h-1237c-48 0 -88 40 -88 89v469h118v-440h1178zM1796 1413c49 0 88 -39 88 -88v-770
h-117v740h-707v-382c0 -49 -40 -89 -88 -89h-383v-269h-118v358c0 24 7 51 19 81c12 29 26 52 44 70l287 287c17 17 40 32 70 44c29 12 56 18 81 18h824zM942 942v346c-17 -6 -30 -13 -38 -20l-288 -288c-7 -8 -13 -20 -20 -38h346z" />
    <glyph glyph-name="file_model" unicode="&#xf03b;" horiz-adv-x="1413" 
d="M1413 265c0 -25 -6 -52 -18 -81s-27 -52 -44 -70l-287 -287c-18 -17 -41 -32 -70 -44c-30 -12 -56 -19 -81 -19h-825c-48 0 -88 40 -88 89v1472c0 49 40 88 88 88h1237c49 0 88 -39 88 -88v-1060zM942 236v-346c18 6 30 12 38 20l288 288c7 7 14 20 20 38h-346zM1295 353
v942h-1177v-1413h706v383c0 49 40 88 89 88h382zM934 632v236c0 127 -47 259 -241 259c-80 0 -155 -22 -208 -56l26 -76c45 29 106 47 165 47c130 0 144 -94 144 -146v-13c-245 1 -381 -83 -381 -236c0 -91 66 -181 194 -181c90 0 158 44 194 94h3l10 -80h104
c-8 43 -10 97 -10 152zM823 803v-110c0 -12 -3 -25 -7 -37c-18 -53 -71 -105 -153 -105c-59 0 -108 35 -108 109c0 123 142 146 268 143z" />
    <glyph glyph-name="picture" unicode="&#xf03e;" horiz-adv-x="1920" 
 />
    <glyph glyph-name="pencil" unicode="&#xf040;" 
 />
    <glyph glyph-name="map_marker" unicode="&#xf041;" horiz-adv-x="1024" 
 />
    <glyph glyph-name="adjust" unicode="&#xf042;" 
 />
    <glyph glyph-name="tint" unicode="&#xf043;" horiz-adv-x="1024" 
 />
    <glyph glyph-name="share" unicode="&#xf045;" horiz-adv-x="1664" 
 />
    <glyph glyph-name="check" unicode="&#xf046;" horiz-adv-x="1664" 
 />
    <glyph glyph-name="step_backward" unicode="&#xf048;" horiz-adv-x="1024" 
 />
    <glyph glyph-name="backward" unicode="&#xf04a;" horiz-adv-x="1664" 
 />
    <glyph glyph-name="play" unicode="&#xf04b;" horiz-adv-x="1408" 
 />
    <glyph glyph-name="pause" unicode="&#xf04c;" 
 />
    <glyph glyph-name="stop" unicode="&#xf04d;" 
 />
    <glyph glyph-name="forward" unicode="&#xf04e;" horiz-adv-x="1664" 
 />
    <glyph glyph-name="step_forward" unicode="&#xf051;" horiz-adv-x="1024" 
 />
    <glyph glyph-name="eject" unicode="&#xf052;" horiz-adv-x="1538" 
 />
    <glyph glyph-name="chevron_left" unicode="&#xf053;" horiz-adv-x="1280" 
 />
    <glyph glyph-name="chevron_right" unicode="&#xf054;" horiz-adv-x="1280" 
 />
    <glyph glyph-name="plus_sign" unicode="&#xf055;" 
 />
    <glyph glyph-name="minus_sign" unicode="&#xf056;" 
 />
    <glyph glyph-name="remove_sign" unicode="&#xf057;" 
 />
    <glyph glyph-name="ok_sign" unicode="&#xf058;" 
 />
    <glyph glyph-name="question_sign" unicode="&#xf059;" 
 />
    <glyph glyph-name="info_sign" unicode="&#xf05a;" 
 />
    <glyph glyph-name="screenshot" unicode="&#xf05b;" 
 />
    <glyph glyph-name="remove_circle" unicode="&#xf05c;" 
 />
    <glyph glyph-name="ok_circle" unicode="&#xf05d;" 
 />
    <glyph glyph-name="ban_circle" unicode="&#xf05e;" 
 />
    <glyph glyph-name="arrow_left" unicode="&#xf060;" 
 />
    <glyph glyph-name="arrow_right" unicode="&#xf061;" 
 />
    <glyph glyph-name="arrow_up" unicode="&#xf062;" horiz-adv-x="1664" 
 />
    <glyph glyph-name="arrow_down" unicode="&#xf063;" horiz-adv-x="1664" 
 />
    <glyph glyph-name="resize_full" unicode="&#xf065;" 
 />
  </font>
</defs>
</svg>
